Вы используете незарегистрированную версию компонента "Вкладки"!

Поиск

(Free Jazz, Free Improvisation) Mujician - Poem About The Hero - 1994, FLAC (tracks+.cue) lossless

(Free Jazz, Free Improvisation) Mujician - Poem About The Hero - 1994, FLAC (tracks+.cue) lossless
Треклист:
Mujician / Poem About The Hero
Жанр: Free Jazz, Free Improvisation
Страна-производитель диска: US
Год издания диска: 1994
Издатель (лейбл): Cuneiform Records
Номер по каталогу: Rune 62
Страна: UK
Аудио кодек: FLAC (*.flac)
Тип рипа: tracks+.cue
Битрейт аудио: lossless
Продолжительность: 73:23
Источник (релизер): avaxhome.ws
Наличие сканов в содержимом раздачи: да
Треклист:
1. First Verse 7:48
2. Second Verse 9:34
3. Third Verse 23:33
4. Fourth Verse 1:33
5. Fifth Verse 30:40
 
Лог создания рипа
Exact Audio Copy V0.99 prebeta 5 from 4. May 2009
EAC extraction logfile from 22. February 2011, 23:48
Mujician / Poem About The Hero
Used drive : HL-DT-STDVD-RAM GSA-H55N Adapter: 0 ID: 0
Read mode : Secure
Utilize accurate stream : Yes
Defeat audio cache : Yes
Make use of C2 pointers : No
Read offset correction : 102
Overread into Lead-In and Lead-Out : No
Fill up missing offset samples with silence : Yes
Delete leading and trailing silent blocks : No
Null samples used in CRC calculations : Yes
Used interface : Native Win32 interface for Win NT & 2000
Gap handling : Appended to previous track
Used output format : Internal WAV Routines
Sample format : 44.100 Hz; 16 Bit; Stereo
TOC of the extracted CD
Track | Start | Length | Start sector | End sector
---------------------------------------------------------
1 | 0:00.00 | 7:51.32 | 0 | 35356
2 | 7:51.32 | 9:37.53 | 35357 | 78684
3 | 17:29.10 | 23:37.22 | 78685 | 184981
4 | 41:06.32 | 1:37.30 | 184982 | 192286
5 | 42:43.62 | 30:39.70 | 192287 | 330281
Track 1
Filename D:\_Music myRips\Mujician - Poem About The Hero (1994)\Mujician - Poem About The Hero (1994) wav\01 - First verse.wav
Pre-gap length 0:00:02.00
Peak level 98.8 %
Track quality 100.0 %
Test CRC 999DC65D
Copy CRC 999DC65D
Track not present in AccurateRip database
Copy OK
Track 2
Filename D:\_Music myRips\Mujician - Poem About The Hero (1994)\Mujician - Poem About The Hero (1994) wav\02 - Second verse.wav
Peak level 98.8 %
Track quality 100.0 %
Test CRC 67B8F6B2
Copy CRC 67B8F6B2
Cannot be verified as accurate (confidence 2) [1B506B38], AccurateRip returned [89992146]
Copy OK
Track 3
Filename D:\_Music myRips\Mujician - Poem About The Hero (1994)\Mujician - Poem About The Hero (1994) wav\03 - Third verse.wav
Peak level 98.8 %
Track quality 100.0 %
Test CRC A8033F61
Copy CRC A8033F61
Cannot be verified as accurate (confidence 2) [3724C8AA], AccurateRip returned [6ACAA476]
Copy OK
Track 4
Filename D:\_Music myRips\Mujician - Poem About The Hero (1994)\Mujician - Poem About The Hero (1994) wav\04 - Fourth verse.wav
Peak level 12.1 %
Track quality 100.0 %
Test CRC 678C7CC1
Copy CRC 678C7CC1
Cannot be verified as accurate (confidence 2) [EBD54B55], AccurateRip returned [A7F10743]
Copy OK
Track 5
Filename D:\_Music myRips\Mujician - Poem About The Hero (1994)\Mujician - Poem About The Hero (1994) wav\05 - Fifth verse.wav
Peak level 98.8 %
Track quality 100.0 %
Test CRC 2D1C572D
Copy CRC 2D1C572D
Cannot be verified as accurate (confidence 1) [C0EBFF2E], AccurateRip returned [CAD2BF1E]
Copy OK
4 track(s) could not be verified as accurate
1 track(s) not present in the AccurateRip database
No tracks could be verified as accurate
You may have a different pressing from the one(s) in the database
No errors occurred
End of status report
 
Содержание индексной карты (.CUE)
REM DISCID 3D113305
REM COMMENT "ExactAudioCopy v0.99pb5"
PERFORMER "Mujician"
TITLE "Poem About The Hero"
FILE "01 - First verse.wav" WAVE
TRACK 01 AUDIO
TITLE "First verse"
PERFORMER "Mujician"
INDEX 01 00:00:00
FILE "02 - Second verse.wav" WAVE
TRACK 02 AUDIO
TITLE "Second verse"
PERFORMER "Mujician"
INDEX 01 00:00:00
FILE "03 - Thira verse.wav" WAVE
TRACK 03 AUDIO
TITLE "Thira verse"
PERFORMER "Mujician"
INDEX 01 00:00:00
FILE "04 - Fourth verse.wav" WAVE
TRACK 04 AUDIO
TITLE "Fourth verse"
PERFORMER "Mujician"
INDEX 01 00:00:00
FILE "05 - Fifth verse.wav" WAVE
TRACK 05 AUDIO
TITLE "Fifth verse"
PERFORMER "Mujician"
INDEX 01 00:00:00
 
Лог проверки качества
d:\>d:\aucdtect -d/-m0 d:\zzz\*.wav
auCDtect: CD records authenticity detector, version 0.8.2
Copyright (c) 2004 Oleg Berngardt. All rights reserved.
Copyright (c) 2004 Alexander Djourik. All rights reserved.
------------------------------------------------------------
Processing file: [01. First verse.wav]
------------------------------------------------------------
This track looks like CDDA with probability 100%
------------------------------------------------------------
Processing file: [02. Second verse.wav]
------------------------------------------------------------
This track looks like CDDA with probability 100%
------------------------------------------------------------
Processing file: [03. Third verse.wav]
------------------------------------------------------------
This track looks like CDDA with probability 100%
------------------------------------------------------------
Processing file: [04. Fourth verse.wav]
------------------------------------------------------------
This track looks like CDDA with probability 100%
------------------------------------------------------------
Processing file: [05. Fifth verse.wav]
------------------------------------------------------------
This track looks like CDDA with probability 100%
------------------------------------------------------------
Final Conclusion:
------------------------------------------------------------
These tracks looks like CDDA with probability 100%
 
Скриншот спектра частот
 
Состав
Keith Tippett: Steinway grand piano, wood blocks, plastic pan pipes, pebble and maraca
Paul Rogers: five string double bass
Tony Levin: drums & percussion
Paul Dunmall: soprano & tenor saxophones
Any questions -> support@pro-jazz.com. По всем вопросам пишите -> support@pro-jazz.com
09:23
170
Нет комментариев. Ваш будет первым!