Вы используете незарегистрированную версию компонента "Вкладки"!

Поиск

(Contemporary Jazz) John Zorn - Zorn John - Godard, Spillane - 1999, FLAC (image+.cue) lossless

(Contemporary Jazz) John Zorn - Zorn John - Godard, Spillane - 1999, FLAC (image+.cue) lossless
Треклист:
John Zorn / Zorn John - Godard, Spillane
Жанр: Contemporary Jazz
Страна-производитель диска: USA
Год издания диска: 1999
Издатель (лейбл): Tzadik
Номер по каталогу: TZ 7324
Страна: USA
Аудио кодек: FLAC (*.flac)
Тип рипа: image+.cue
Битрейт аудио: lossless
Продолжительность: 50:05
Источник (релизер): рип с оригинального CD
Наличие сканов в содержимом раздачи: да
Треклист:
1. Godard 18:37
Banjo - Bill Frisell
Drums - Bobby Previte
Guitar - Bill Frisell
Harp - Carol Emanuel
Keyboards - David Weinstein
Narrator [Chinese] - Wu Shao-Ying
Narrator [English] - Richard Foreman
Narrator [French] - John Zorn
Narrator [Japanese] - Luli Shioi
Percussion - Bobby Previte
Saxophone - John Zorn
Turntables - Christian Marclay
Voice - Luli Shioi
2. Spillane 25:12
Bass - David Hofstra
Clarinet - John Zorn
Drums - Bobby Previte
Effects [Compact Disc] - Bob James
Guitar - Bill Frisell
Harp - Carol Emanuel
Keyboards - David Weinstein
Percussion - Bobby Previte
Saxophone [Alto] - John Zorn
Tape - Bob James
Timpani - Bobby Previte
Trombone - Jim Staley
Tuba - David Hofstra
Voice - John Lurie , Robert Quine
3. Blues Nöel 5:51
Bass - Fred Frith
Drum Programming - Ikue Mori
Guitar - Fred Frith
Percussion - Michael Blair
Saxophone [Alto] - John Zorn
Voice - Ikue Mori , Michael Blair
 
Лог создания рипа
Exact Audio Copy V1.0 beta 1 from 15. November 2010
EAC extraction logfile from 6. March 2011, 20:02
John Zorn / Godard/Spillane
Used drive : MATSHITADVD-RAM UJ890AS Adapter: 0 ID: 1
Read mode : Secure
Utilize accurate stream : Yes
Defeat audio cache : Yes
Make use of C2 pointers : No
Read offset correction : 102
Overread into Lead-In and Lead-Out : No
Fill up missing offset samples with silence : Yes
Delete leading and trailing silent blocks : No
Null samples used in CRC calculations : Yes
Used interface : Native Win32 interface for Win NT & 2000
Used output format : User Defined Encoder
Selected bitrate : 128 kBit/s
Quality : High
Add ID3 tag : No
Command line compressor : C:\Program Files (x86)\Exact Audio Copy\FLAC\FLAC.EXE
Additional command line options : -6 -V -T "ARTIST=%a" -T "TITLE=%t" -T "ALBUM=%g" -T "DATE=%y" -T "TRACKNUMBER=%n" -T "GENRE=%m" -T "COMMENT=%e" %j--picture="%i"%j %s -o %d
TOC of the extracted CD
Track | Start | Length | Start sector | End sector
---------------------------------------------------------
1 | 0:00.00 | 18:48.57 | 0 | 84656
2 | 18:48.57 | 25:24.00 | 84657 | 198956
3 | 44:12.57 | 5:53.05 | 198957 | 225436
Range status and errors
Selected range
Filename D:\Music\John Zorn - Godard,Spillane.wav
Peak level 99.5 %
Extraction speed 0.1 X
Range quality 100.0 %
Copy CRC 3A7DDB3A
Copy OK
No errors occurred
AccurateRip summary
Track 1 not present in database
Track 2 not present in database
Track 3 not present in database
None of the tracks are present in the AccurateRip database
End of status report
 
Содержание индексной карты (.CUE)
REM GENRE Jazz
REM DATE 1999
REM DISCID 180BBD03
REM COMMENT "ExactAudioCopy v1.0b1"
PERFORMER "John Zorn"
TITLE "Godard/Spillane"
FILE "John Zorn - Godard,Spillane.flac" WAVE
TRACK 01 AUDIO
TITLE "Godard"
PERFORMER "John Zorn"
INDEX 01 00:00:00
TRACK 02 AUDIO
TITLE "Spillane"
PERFORMER "John Zorn"
INDEX 00 18:38:20
INDEX 01 18:48:57
TRACK 03 AUDIO
TITLE "Blue Noel"
PERFORMER "John Zorn"
INDEX 00 44:01:37
INDEX 01 44:12:57
 
Состав
Celesta, Harpsichord, Organ, Piano - Anthony Coleman
Executive Producer - Kazunori Sugiyama
Mastered By [Remaster] - Allan Tucker
Mixed By - Don Hunerberg*
Producer - John Zorn
Sampler, Recorded By - Don Hunerberg*
Written-By - John Zorn
По всем вопросам пишите личное сообщение пользователю M0p94ok.
09:24
321
Нет комментариев. Ваш будет первым!