Вы используете незарегистрированную версию компонента "Вкладки"!

Поиск

(Free Jazz, Free Improvisation) Marilyn Crispell, Fritz Hauser, Joelle Leandre, Urs Leimgruber - Quartet Noir - 1999, APE (image+.cue) lossless

Треклист:
Marilyn Crispell, Fritz Hauser, Joelle Leandre, Urs Leimgruber / Quartet Noir
Жанр: Free Jazz, Free Improvisation
Страна-производитель диска: Canada
Год издания диска: 1999
Издатель (лейбл): Les Disques Victo
Номер по каталогу: VICTO CD 067
Аудио кодек: APE (*.ape)
Тип рипа: image+.cue
Битрейт аудио: lossless
Продолжительность: 62:43
Источник (релизер): сетЪ
Наличие сканов в содержимом раздачи: да
Треклист:
1. Quartet Noir, Pt. 1
2. Quartet Noir, Pt. 2
3. Quartet Noir, Pt. 3
4. Quartet Noir, Pt. 4
5. Quartet Noir, Pt. 5
6. Quartet Noir, Pt. 6
7. Quartet Noir, Pt. 7
8. Quartet Noir, Pt. 8
 
Лог создания рипа
Exact Audio Copy V0.99 prebeta 4 from 23. January 2008
Estrazione File Di Log EAC Del 1. Dicembre 2010, 14:24
Urs Leimgruber / Quartet Noir
Unitа Predefinita: ATAPI DVD A DH16A1L Adapter: 1 ID: 0
Modalitа Di Lettura: : Sicura
Utilizza Lettura Accurata : Sм
Disattiva Cache Audio : Sм
Rileva Errori Lettura C2 : No
Correzione Offset Di Lettura: : 6
Sovrascrivi Anche Nel Lead-In E Lead-Out : No
Riempi Sample Offset Mancanti Con Silenzio : Sм
Rimuovi Blocchi Di Silenzio Ad Inizio E Fine Traccia : No
Usa I Sample Nulli Nel Calcolo CRC : Sм
Interfaccia Usata : Interfaccia Nativa Win32 Per Windows NT & 2000
Formato Di Destinazione Scelto: : Routine Interne WAV
Formato Sample : 44.100 Hz; 16 Bit; Stereo
TOC Del CD Estratto
Traccia | Inizio | Lunghezza | Inizio Settore | Fine Settore
----------------------------------------------------------------
1 | 0:00.00 | 14:32.05 | 0 | 65404
2 | 14:32.05 | 6:25.22 | 65405 | 94301
3 | 20:57.27 | 2:45.65 | 94302 | 106741
4 | 23:43.17 | 10:29.05 | 106742 | 153921
5 | 34:12.22 | 4:28.28 | 153922 | 174049
6 | 38:40.50 | 6:07.52 | 174050 | 201626
7 | 44:48.27 | 8:48.53 | 201627 | 241279
8 | 53:37.05 | 9:05.57 | 241280 | 282211
Stato Intervallo Ed Errori
Intervallo Selezionato
Nome File C:\avaxhome\Urs Leimgruber - Quartet Noir.wav
Livello Di Picco 100.0 %
Qualitа Intervallo 100.0 %
Copia CRC C38475BE
Copia Corretta
Non Sono Stati Riscontrati Errori
Sommario Accuraterip
Traccia 1 Non Presente Nel Database
Traccia 2 Non Presente Nel Database
Traccia 3 Non Presente Nel Database
Traccia 4 Non Presente Nel Database
Traccia 5 Non Presente Nel Database
Traccia 6 Non Presente Nel Database
Traccia 7 Non Presente Nel Database
Traccia 8 Non Presente Nel Database
Nessuna Delle Tracce и Presente Nel Database AccurateRip
Fine Del Resoconto Di Stato
 
Содержание индексной карты (.CUE)
REM GENRE Free Improvisation
REM DATE 1998
REM DISCID 660EB208
REM COMMENT ExactAudioCopy v0.99pb4
PERFORMER "Marilyn Crispell, Fritz Hauser, Joelle Leandre, Urs Leimgruber"
TITLE "Quartet Noir"
FILE "Urs Leimgruber - Quartet Noir.APE" WAVE
TRACK 01 AUDIO
TITLE "Quartet Noir Part I"
INDEX 01 00:00:00
TRACK 02 AUDIO
TITLE "Quartet Noir Part II"
INDEX 01 14:32:05
TRACK 03 AUDIO
TITLE "Quartet Noir Part III"
INDEX 00 20:57:21
INDEX 01 20:57:27
TRACK 04 AUDIO
TITLE "Quartet Noir Part IV"
INDEX 01 23:43:17
TRACK 05 AUDIO
TITLE "Quartet Noir Part V"
INDEX 01 34:12:22
TRACK 06 AUDIO
TITLE "Quartet Noir Part VI"
INDEX 00 38:40:43
INDEX 01 38:40:50
TRACK 07 AUDIO
TITLE "Quartet Noir Part VII"
INDEX 01 44:48:27
TRACK 08 AUDIO
TITLE "Quartet Noir Part VIII"
INDEX 00 53:36:69
INDEX 01 53:37:05
Доп. информация: International Music Festival, Actuelle De Victoriaville (05/15/1998).
 
Об альбоме (сборнике)
Recorded live at the Victoriaville Festival in 1998, this 67-minute spontaneous composition is explosive not only for what happens in it, but for what doesn't. The guns don't blaze here very often, but they are just as deadly with silencers on. And needless to say, when Urs Leimgruber is the least-known musician in a quartet, you have some heavyweight players. The quartet is aptly named, given its performance, which uses night not only as a metaphor, but as an m.o. for improvisation, where texture, space, and economy become a hypnotic wilderness of sound devoid of light and all sensation but hearing. The opening section is the longest, at 14 minutes. It is the area where the band members establish the language from which they will speak. That syntax develops very slowly on this record, moving one step at a time but no less packed with ideas for its easy, even tortoise-like pace. There is nothing tentative in the manner in which these players relate to one another, but it is subtle. Crispell clearly has control; she keeps each element blending into the others with her colorful swaths of clustered notes and mode-changing lines. Leandre and Hauser forge their own sense of rhythm for Leimgruber to create the group's melodic sensibility and intervalic coordination. Finally, in the very last of eight movements, dawn begins to break and the light startles the players. Crispell drives into the coming storm first, charging in a flurry of augmented chords and single-note runs. Leimgruber follows as Hauser triple-times everyone. As tension reaches a fever pitch and everyone has been wakened from their somnambulant pondering in this beautiful abyss, Leandre brings in the final aspect of a dawn rooted to not only the sun, but the earth, and the piece comes to a winding, floating halt -- leaving, I am sure, everyone in that audience wondering just what had taken place during that hour when they were hypnotized. ~ Thom Jurek
 
Состав
Urs Leimgruber (soprano saxophone, tenor saxophone);
Joelle Leandre (Contrabass);
Marilyn Crispell (piano);
Fritz Hauser (drums, percussion).
Any questions -> support@pro-jazz.com. По всем вопросам пишите -> support@pro-jazz.com
08:36
209
Нет комментариев. Ваш будет первым!