Вы используете незарегистрированную версию компонента "Вкладки"!

Поиск

(Free Jazz) Eraldo Volonte - Free And Loose - 1999, FLAC (tracks+.cue) lossless

(Free Jazz) Eraldo Volonte - Free And Loose - 1999, FLAC (tracks+.cue) lossless
Треклист:
Eraldo Volonte - Free And Loose
Жанр: Free Jazz
Страна-производитель диска: Italy
Год издания диска: 1999
Издатель (лейбл): Rearward
Номер по каталогу: RW114 CD
Аудио кодек: FLAC (*.flac)
Тип рипа: tracks+.cue
Битрейт аудио: lossless
Продолжительность: 31:23
Источник (релизер): собственный
Наличие сканов в содержимом раздачи: да
1 Free And Loose
2 Dialogue
3 For Gaslini
4 Six For Arpo
Recorded in Milan at Studio Microphone, May 1968
wiki (italiano)
 
Состав
Eraldo Volonté - soprano & tenor sax
Oscar Valdambrini - trumpet
Dino Piana - trombone
Giorgio Azzolini - double bass
Benoit Charvet - double bass
Franco Manzecchi - drums
 
Лог создания рипа
Exact Audio Copy V1.0 beta 1 from 15. November 2010
EAC extraction logfile from 8. February 2011, 23:38
Eraldo Volonte / Free And Loose
Used drive : MATSHITADVD-RAM UJ-860S Adapter: 2 ID: 0
Read mode : Secure
Utilize accurate stream : Yes
Defeat audio cache : Yes
Make use of C2 pointers : No
Read offset correction : 102
Overread into Lead-In and Lead-Out : No
Fill up missing offset samples with silence : Yes
Delete leading and trailing silent blocks : No
Null samples used in CRC calculations : Yes
Used interface : Native Win32 interface for Win NT & 2000
Gap handling : Appended to previous track
Used output format : User Defined Encoder
Selected bitrate : 128 kBit/s
Quality : High
Add ID3 tag : No
Command line compressor : C:\Program Files\Exact Audio Copy\flac.exe
Additional command line options : -8 -V -T "ARTIST=%a" -T "TITLE=%t" -T "ALBUM=%g" -T "DATE=%y" -T "TRACKNUMBER=%n" -T "GENRE=%m" -T "COMMENT=EAC FLAC -8" %s
TOC of the extracted CD
Track | Start | Length | Start sector | End sector
---------------------------------------------------------
1 | 0:00.00 | 9:17.17 | 0 | 41791
2 | 9:17.17 | 6:49.68 | 41792 | 72534
3 | 16:07.10 | 6:38.62 | 72535 | 102446
4 | 22:45.72 | 8:39.68 | 102447 | 141439
Track 1
Filename F:\Musak 2\Eraldo Volonte\Free And Loose (1968)\01. Eraldo Volonte – Free And Loose.wav
Pre-gap length 0:00:02.00
Peak level 98.6 %
Extraction speed 0.9 X
Track quality 99.9 %
Test CRC D447A0E5
Copy CRC D447A0E5
Track not present in AccurateRip database
Copy OK
Track 2
Filename F:\Musak 2\Eraldo Volonte\Free And Loose (1968)\02. Eraldo Volonte – Dialogue.wav
Pre-gap length 0:00:01.32
Peak level 86.7 %
Extraction speed 1.0 X
Track quality 100.0 %
Test CRC A8B98F61
Copy CRC A8B98F61
Track not present in AccurateRip database
Copy OK
Track 3
Filename F:\Musak 2\Eraldo Volonte\Free And Loose (1968)\03. Eraldo Volonte – For Gaslini.wav
Pre-gap length 0:00:01.40
Peak level 100.0 %
Extraction speed 1.0 X
Track quality 100.0 %
Test CRC E1BF6118
Copy CRC E1BF6118
Track not present in AccurateRip database
Copy OK
Track 4
Filename F:\Musak 2\Eraldo Volonte\Free And Loose (1968)\04. Eraldo Volonte – Six For Arpo.wav
Peak level 100.0 %
Extraction speed 1.1 X
Track quality 100.0 %
Test CRC 2A65A385
Copy CRC 2A65A385
Track not present in AccurateRip database
Copy OK
None of the tracks are present in the AccurateRip database
No errors occurred
End of status report
 
Содержание индексной карты (.CUE)
REM GENRE Jazz
REM DATE 1999
REM DISCID 3E075D04
REM COMMENT "ExactAudioCopy v1.0b1"
PERFORMER "Eraldo Volonte"
TITLE "Free And Loose"
FILE "01. Eraldo Volonte – Free And Loose.wav" WAVE
TRACK 01 AUDIO
TITLE "Free And Loose"
PERFORMER "Eraldo Volonte"
INDEX 01 00:00:00
TRACK 02 AUDIO
TITLE "Dialogue"
PERFORMER "Eraldo Volonte"
INDEX 00 09:15:60
FILE "02. Eraldo Volonte – Dialogue.wav" WAVE
INDEX 01 00:00:00
TRACK 03 AUDIO
TITLE "For Gaslini"
PERFORMER "Eraldo Volonte"
INDEX 00 06:48:28
FILE "03. Eraldo Volonte – For Gaslini.wav" WAVE
INDEX 01 00:00:00
FILE "04. Eraldo Volonte – Six For Arpo.wav" WAVE
TRACK 04 AUDIO
TITLE "Six For Arpo"
PERFORMER "Eraldo Volonte"
INDEX 01 00:00:00
 
Tau Analyzer
Any questions -> support@pro-jazz.com. По всем вопросам пишите -> support@pro-jazz.com
08:36
232
Нет комментариев. Ваш будет первым!