Вы используете незарегистрированную версию компонента "Вкладки"!

Поиск

(Free Jazz, Free Improvisation, Leo Records) Evan Parker with Noel Akchoté, Lawrence Casserley and Joel Ryan - Live at « Les Instants chavirés » - 1998, FLAC (tracks+.cue), lossless

(Free Jazz, Free Improvisation, Leo Records) Evan Parker with Noel Akchoté, Lawrence Casserley and Joel Ryan - Live at « Les Instants chavirés » - 1998, FLAC (tracks+.cue), lossless
Треклист:
Evan Parker with Noel Akchoté, Lawrence Casserley and Joel Ryan / Live at « Les Instants chavirés »
Жанр: Free Jazz, Free Improvisation, Leo Records
Страна-производитель диска: U.K.
Год издания: 1998
Издатель (лейбл): Leo Records
Номер по каталогу: CD LR 255
Аудиокодек: FLAC (*.flac)
Тип рипа: tracks+.cue
Битрейт аудио: lossless
Продолжительность: 1:17:31
Источник (релизер): Max Monteiro
Наличие сканов в содержимом раздачи: нет
Треклист:
1. Instant 1 (Evan Parker / Joel Ryan) 19:15
2. Instant 2 (Noel Akchoté / Lawrence Casserley) 14:06
3. Instant 3 (Evan Parker / Lawrence Casserley / Joel Ryan) 12:26
4. Instant 4 (Noel Akchoté / Joel Ryan / Lawrence Casserley) 11:59
5. Instant 5 (Noel Akchoté / Joel Ryan) 11:04
6. Instant 6 (Evan Parker / Noel Akchoté / Lawrence Casserley / Joel Ryan) 8:40
Recorded in concert December 20, 1997 at « Les Instants chavirés », Montreuil, France.
Evan Parker – Soprano Saxophone
Noel Akchoté – Amplified Guitar
Lawrence Casserley – Signal Processing Instruments
Joel Ryan – Computer
 
Лог создания рипа
Exact Audio Copy V1.0 beta 3 from 29. August 2011
EAC extraction logfile from 13. June 2013, 12:10
Evan Parker with Noel Akchoté, Lawrence Casserley and Joel Ryan / Live at ''Les Instants chavirés''
Used drive : SlimtypeeNAU508 5 Adapter: 1 ID: 0
Read mode : Secure
Utilize accurate stream : Yes
Defeat audio cache : Yes
Make use of C2 pointers : No
Read offset correction : 6
Overread into Lead-In and Lead-Out : No
Fill up missing offset samples with silence : Yes
Delete leading and trailing silent blocks : No
Null samples used in CRC calculations : Yes
Used interface : Native Win32 interface for Win NT & 2000
Gap handling : Appended to previous track
Used output format : User Defined Encoder
Selected bitrate : 768 kBit/s
Quality : High
Add ID3 tag : No
Command line compressor : C:\Program Files (x86)\Exact Audio Copy\Flac\flac.exe
Additional command line options : -8 -V -T "ARTIST=%artist%" -T "TITLE=%title%" -T "ALBUM=%albumtitle%" -T "DATE=%year%" -T "TRACKNUMBER=%tracknr%" -T "GENRE=%genre%" -T "PERFORMER=%albuminterpret%" -T "COMPOSER=%composer%" %haslyrics%--tag-from-file=LYRICS="%lyricsfile%"%haslyrics% -T "ALBUMARTIST=%albumartist%" -T "DISCNUMBER=%cdnumber%" -T "TOTALDISCS=%totalcds%" -T "TOTALTRACKS=%numtracks%" -T "COMMENT=%comment%" %source% -o %dest%
TOC of the extracted CD
Track | Start | Length | Start sector | End sector
---------------------------------------------------------
1 | 0:00.00 | 19:15.05 | 0 | 86629
2 | 19:15.05 | 14:06.05 | 86630 | 150084
3 | 33:21.10 | 12:26.02 | 150085 | 206036
4 | 45:47.12 | 11:59.25 | 206037 | 259986
5 | 57:46.37 | 11:03.60 | 259987 | 309771
6 | 68:50.22 | 8:40.25 | 309772 | 348796
Track 1
Filename C:\EAC rips\01 - Instant 1.wav
Pre-gap length 0:00:02.00
Peak level 65.0 %
Extraction speed 1.5 X
Track quality 100.0 %
Test CRC 7FDB68B1
Copy CRC 7FDB68B1
Accurately ripped (confidence 2) [F57A8262] (AR v1)
Copy OK
Track 2
Filename C:\EAC rips\02 - Instant 2.wav
Peak level 47.5 %
Extraction speed 2.0 X
Track quality 100.0 %
Test CRC 69879231
Copy CRC 69879231
Accurately ripped (confidence 2) [34B3697F] (AR v1)
Copy OK
Track 3
Filename C:\EAC rips\03 - Instant 3.wav
Peak level 54.4 %
Extraction speed 2.2 X
Track quality 100.0 %
Test CRC 94CC5B5D
Copy CRC 94CC5B5D
Accurately ripped (confidence 2) [B6C02A1B] (AR v1)
Copy OK
Track 4
Filename C:\EAC rips\04 - Instant 4.wav
Peak level 83.3 %
Extraction speed 2.4 X
Track quality 100.0 %
Test CRC A73041AA
Copy CRC A73041AA
Accurately ripped (confidence 2) [FD79F276] (AR v1)
Copy OK
Track 5
Filename C:\EAC rips\05 - Instant 5.wav
Peak level 72.2 %
Extraction speed 2.6 X
Track quality 100.0 %
Test CRC 45DC14DD
Copy CRC 45DC14DD
Accurately ripped (confidence 2) [679DEC06] (AR v1)
Copy OK
Track 6
Filename C:\EAC rips\06 - Instant 6.wav
Pre-gap length 0:00:00.01
Peak level 67.4 %
Extraction speed 2.7 X
Track quality 100.0 %
Test CRC 33807F4A
Copy CRC 33807F4A
Accurately ripped (confidence 2) [2E5DF71C] (AR v1)
Copy OK
All tracks accurately ripped
No errors occurred
End of status report
---- CUETools DB Plugin V2.1.4
[CTDB TOCID: Y0BX8s9qq9d2JT3WvHXnwnZ_X3g-] disk not present in database
Submit result: Y0BX8s9qq9d2JT3WvHXnwnZ_X3g- has been uploaded
==== Log checksum 3F828122D05596A2E1E7DAD8E47429B3204112D89B0FCBAE6BD1A964D7960986 ====
 
Содержание индексной карты (.CUE)
REM GENRE Jazz
REM DATE 1998
REM DISCID 4A122A06
REM COMMENT "ExactAudioCopy v1.0b3"
PERFORMER "Evan Parker with Noel Akchoté, Lawrence Casserley and Joel Ryan"
TITLE "Live at ''Les Instants chavirés''"
FILE "01 - Instant 1.wav" WAVE
TRACK 01 AUDIO
TITLE "Instant 1"
PERFORMER "Evan Parker with Noel Akchoté, Lawrence Casserley and Joel Ryan"
INDEX 01 00:00:00
FILE "02 - Instant 2.wav" WAVE
TRACK 02 AUDIO
TITLE "Instant 2"
PERFORMER "Evan Parker with Noel Akchoté, Lawrence Casserley and Joel Ryan"
INDEX 01 00:00:00
FILE "03 - Instant 3.wav" WAVE
TRACK 03 AUDIO
TITLE "Instant 3"
PERFORMER "Evan Parker with Noel Akchoté, Lawrence Casserley and Joel Ryan"
INDEX 01 00:00:00
FILE "04 - Instant 4.wav" WAVE
TRACK 04 AUDIO
TITLE "Instant 4"
PERFORMER "Evan Parker with Noel Akchoté, Lawrence Casserley and Joel Ryan"
INDEX 01 00:00:00
FILE "05 - Instant 5.wav" WAVE
TRACK 05 AUDIO
TITLE "Instant 5"
PERFORMER "Evan Parker with Noel Akchoté, Lawrence Casserley and Joel Ryan"
INDEX 01 00:00:00
TRACK 06 AUDIO
TITLE "Instant 6"
PERFORMER "Evan Parker with Noel Akchoté, Lawrence Casserley and Joel Ryan"
INDEX 00 11:03:59
FILE "06 - Instant 6.wav" WAVE
INDEX 01 00:00:00
Any questions -> support@pro-jazz.com. По всем вопросам пишите -> support@pro-jazz.com
14:53
164
Нет комментариев. Ваш будет первым!