Вы используете незарегистрированную версию компонента "Вкладки"!

Поиск

(Free Improvisation) Julien Pinol Quintet - Petites Fleurs - 2002, FLAC (tracks+.cue), lossless

(Free Improvisation) Julien Pinol Quintet - Petites Fleurs - 2002, FLAC (tracks+.cue), lossless
Треклист:
Julien Pinol Quintet / Petites Fleurs
Жанр: Free Improvisation
Страна-производитель диска: Switzerland
Год издания: 2002
Издатель (лейбл): Doron Jazz
Номер по каталогу: DRJ 1014
Аудиокодек: FLAC (*.flac)
Тип рипа: tracks+.cue
Битрейт аудио: lossless
Продолжительность: 51:39
Источник (релизер): Max Monteiro
Наличие сканов в содержимом раздачи: нет
Треклист:
01. Poor Lady 2:00
02. Vers-Soi 3:41
03. Mary 3:54
04. Burstyn, a Beautiful Yellow Stone 4:31
05. Dear as I Hold You Close in My Arms 4:49
06. Les chars lient par tons, mais René lui, non ! 4:22
07. Blues Is Killing Me 3:30
08. L’Oie-Sot 2:19
09. Fly Me to the Sea 4:20
10. Quand nous chanterons le temps des cerises 5:20
11. Brown Scrappel Rag 4:17
12. Los Alamos 3:12
13. Quand nous chanterons le temps des cerises encore 5:23
All songs composed by Julien Pinol.
Recorded on January 17, 18, 2002 at Angström Studio, Geneva.
Julien Pinol – Double Bass, Bb Clarinet on 4, 5, 9
Pete Ehrnrooth – Bass Clarinet
Igor Francesco – Flute
Gilles Torrent – Tenor Saxophone
Sandro Zonca – Drums
 
Лог создания рипа
Exact Audio Copy V1.0 beta 3 from 29. August 2011
EAC extraction logfile from 16. June 2013, 16:10
Julien Pinol Quintet / Petites Fleurs
Used drive : SlimtypeeNAU508 5 Adapter: 1 ID: 0
Read mode : Secure
Utilize accurate stream : Yes
Defeat audio cache : Yes
Make use of C2 pointers : No
Read offset correction : 6
Overread into Lead-In and Lead-Out : No
Fill up missing offset samples with silence : Yes
Delete leading and trailing silent blocks : No
Null samples used in CRC calculations : Yes
Used interface : Native Win32 interface for Win NT & 2000
Gap handling : Appended to previous track
Used output format : User Defined Encoder
Selected bitrate : 768 kBit/s
Quality : High
Add ID3 tag : No
Command line compressor : C:\Program Files (x86)\Exact Audio Copy\Flac\flac.exe
Additional command line options : -8 -V -T "ARTIST=%artist%" -T "TITLE=%title%" -T "ALBUM=%albumtitle%" -T "DATE=%year%" -T "TRACKNUMBER=%tracknr%" -T "GENRE=%genre%" -T "PERFORMER=%albuminterpret%" -T "COMPOSER=%composer%" %haslyrics%--tag-from-file=LYRICS="%lyricsfile%"%haslyrics% -T "ALBUMARTIST=%albumartist%" -T "DISCNUMBER=%cdnumber%" -T "TOTALDISCS=%totalcds%" -T "TOTALTRACKS=%numtracks%" -T "COMMENT=%comment%" %source% -o %dest%
TOC of the extracted CD
Track | Start | Length | Start sector | End sector
---------------------------------------------------------
1 | 0:00.01 | 1:59.52 | 1 | 8977
2 | 1:59.53 | 3:41.21 | 8978 | 25573
3 | 5:40.74 | 3:54.29 | 25574 | 43152
4 | 9:35.28 | 4:31.00 | 43153 | 63477
5 | 14:06.28 | 4:48.54 | 63478 | 85131
6 | 18:55.07 | 4:22.29 | 85132 | 104810
7 | 23:17.36 | 3:30.01 | 104811 | 120561
8 | 26:47.37 | 2:18.73 | 120562 | 130984
9 | 29:06.35 | 4:20.09 | 130985 | 150493
10 | 33:26.44 | 5:19.50 | 150494 | 174468
11 | 38:46.19 | 4:17.17 | 174469 | 193760
12 | 43:03.36 | 3:12.12 | 193761 | 208172
13 | 46:15.48 | 5:23.26 | 208173 | 232423
Track 1
Filename C:\EAC rips\01 - Poor Lady.wav
Pre-gap length 0:00:02.01
Peak level 89.1 %
Extraction speed 0.9 X
Track quality 100.0 %
Test CRC CC071638
Copy CRC CC071638
Track not present in AccurateRip database
Copy OK
Track 2
Filename C:\EAC rips\02 - Vers-Soi.wav
Peak level 89.4 %
Extraction speed 1.1 X
Track quality 100.0 %
Test CRC 35371F6C
Copy CRC 35371F6C
Track not present in AccurateRip database
Copy OK
Track 3
Filename C:\EAC rips\03 - Mary.wav
Peak level 89.4 %
Extraction speed 1.0 X
Track quality 99.9 %
Test CRC CD46384F
Copy CRC CD46384F
Track not present in AccurateRip database
Copy OK
Track 4
Filename C:\EAC rips\04 - Burstyn, a Beautiful Yellow Stone.wav
Peak level 89.4 %
Extraction speed 1.3 X
Track quality 100.0 %
Test CRC 09649D26
Copy CRC 09649D26
Track not present in AccurateRip database
Copy OK
Track 5
Filename C:\EAC rips\05 - Dear as I Hold You Close in My Arms.wav
Peak level 89.4 %
Extraction speed 1.5 X
Track quality 100.0 %
Test CRC B1F42C96
Copy CRC B1F42C96
Track not present in AccurateRip database
Copy OK
Track 6
Filename C:\EAC rips\06 - Les chars lient par tons, mais René lui, non!.wav
Peak level 89.4 %
Extraction speed 1.5 X
Track quality 100.0 %
Test CRC 4080C29A
Copy CRC 4080C29A
Track not present in AccurateRip database
Copy OK
Track 7
Filename C:\EAC rips\07 - Blues Is Killing Me.wav
Peak level 89.4 %
Extraction speed 1.6 X
Track quality 100.0 %
Test CRC 0EAD08BD
Copy CRC 0EAD08BD
Track not present in AccurateRip database
Copy OK
Track 8
Filename C:\EAC rips\08 - L'Oie-Sot.wav
Peak level 89.4 %
Extraction speed 1.5 X
Track quality 100.0 %
Test CRC 4E436910
Copy CRC 4E436910
Track not present in AccurateRip database
Copy OK
Track 9
Filename C:\EAC rips\09 - Fly Me to the Sea.wav
Peak level 89.4 %
Extraction speed 1.7 X
Track quality 100.0 %
Test CRC 793354CA
Copy CRC 793354CA
Track not present in AccurateRip database
Copy OK
Track 10
Filename C:\EAC rips\10 - Quand nous chanterons le temps des cerises.wav
Peak level 89.5 %
Extraction speed 1.7 X
Track quality 99.9 %
Test CRC 73D30A25
Copy CRC 73D30A25
Track not present in AccurateRip database
Copy OK
Track 11
Filename C:\EAC rips\11 - Brown Scrapple Rag.wav
Peak level 89.5 %
Extraction speed 1.9 X
Track quality 100.0 %
Test CRC 8EAE4E84
Copy CRC 8EAE4E84
Track not present in AccurateRip database
Copy OK
Track 12
Filename C:\EAC rips\12 - Los Alamos.wav
Peak level 89.4 %
Extraction speed 1.9 X
Track quality 100.0 %
Test CRC 7C688B69
Copy CRC 7C688B69
Track not present in AccurateRip database
Copy OK
Track 13
Filename C:\EAC rips\13 - Quand nous chanterons le temps des cerises encore.wav
Peak level 89.5 %
Extraction speed 1.9 X
Track quality 99.9 %
Test CRC 6E10B800
Copy CRC 6E10B800
Track not present in AccurateRip database
Copy OK
None of the tracks are present in the AccurateRip database
No errors occurred
End of status report
---- CUETools DB Plugin V2.1.4
[CTDB TOCID: RvTgvk4VWpjd21c42930r.TWynU-] disk not present in database
Submit result: RvTgvk4VWpjd21c42930r.TWynU- has been uploaded
==== Log checksum 2E76F4FD8B8338B989F169903601D540EF1CC5056275F1A9DF9F61A5312DF974 ====
 
Содержание индексной карты (.CUE)
REM GENRE Jazz
REM DATE 2002
REM DISCID C00C1A0D
REM COMMENT "ExactAudioCopy v1.0b3"
PERFORMER "Julien Pinol Quintet"
TITLE "Petites Fleurs"
FILE "01 - Poor Lady.wav" WAVE
TRACK 01 AUDIO
TITLE "Poor Lady"
PERFORMER "Julien Pinol Quintet"
FLAGS DCP
PREGAP 00:00:01
INDEX 01 00:00:00
FILE "02 - Vers-Soi.wav" WAVE
TRACK 02 AUDIO
TITLE "Vers-Soi"
PERFORMER "Julien Pinol Quintet"
FLAGS DCP
INDEX 01 00:00:00
FILE "03 - Mary.wav" WAVE
TRACK 03 AUDIO
TITLE "Mary"
PERFORMER "Julien Pinol Quintet"
FLAGS DCP
INDEX 01 00:00:00
FILE "04 - Burstyn, a Beautiful Yellow Stone.wav" WAVE
TRACK 04 AUDIO
TITLE "Burstyn, a Beautiful Yellow Stone"
PERFORMER "Julien Pinol Quintet"
FLAGS DCP
INDEX 01 00:00:00
FILE "05 - Dear as I Hold You Close in My Arms.wav" WAVE
TRACK 05 AUDIO
TITLE "Dear as I Hold You Close in My Arms"
PERFORMER "Julien Pinol Quintet"
FLAGS DCP
INDEX 01 00:00:00
FILE "06 - Les chars lient par tons, mais René lui, non!.wav" WAVE
TRACK 06 AUDIO
TITLE "Les chars lient par tons, mais René lui, non!"
PERFORMER "Julien Pinol Quintet"
FLAGS DCP
INDEX 01 00:00:00
FILE "07 - Blues Is Killing Me.wav" WAVE
TRACK 07 AUDIO
TITLE "Blues Is Killing Me"
PERFORMER "Julien Pinol Quintet"
FLAGS DCP
INDEX 01 00:00:00
FILE "08 - L'Oie-Sot.wav" WAVE
TRACK 08 AUDIO
TITLE "L'Oie-Sot"
PERFORMER "Julien Pinol Quintet"
FLAGS DCP
INDEX 01 00:00:00
FILE "09 - Fly Me to the Sea.wav" WAVE
TRACK 09 AUDIO
TITLE "Fly Me to the Sea"
PERFORMER "Julien Pinol Quintet"
FLAGS DCP
INDEX 01 00:00:00
FILE "10 - Quand nous chanterons le temps des cerises.wav" WAVE
TRACK 10 AUDIO
TITLE "Quand nous chanterons le temps des cerises"
PERFORMER "Julien Pinol Quintet"
FLAGS DCP
INDEX 01 00:00:00
FILE "11 - Brown Scrapple Rag.wav" WAVE
TRACK 11 AUDIO
TITLE "Brown Scrapple Rag"
PERFORMER "Julien Pinol Quintet"
FLAGS DCP
INDEX 01 00:00:00
FILE "12 - Los Alamos.wav" WAVE
TRACK 12 AUDIO
TITLE "Los Alamos"
PERFORMER "Julien Pinol Quintet"
FLAGS DCP
INDEX 01 00:00:00
FILE "13 - Quand nous chanterons le temps des cerises encore.wav" WAVE
TRACK 13 AUDIO
TITLE "Quand nous chanterons le temps des cerises encore"
PERFORMER "Julien Pinol Quintet"
FLAGS DCP
INDEX 01 00:00:00
Any questions -> support@pro-jazz.com. По всем вопросам пишите -> support@pro-jazz.com
14:54
160
Нет комментариев. Ваш будет первым!