Вы используете незарегистрированную версию компонента "Вкладки"!

Поиск

(Free Jazz, Free Improvisation) Joe Morris Bass Quartet - High Definition - 2008, FLAC (tracks+.cue), lossless

Треклист:
Joe Morris Bass Quartet / High Definition
Жанр: Free Jazz, Free Improvisation
Страна-производитель диска: Switzerland
Год издания диска: 2008
Издатель (лейбл): hatOLOGY
Номер по каталогу: 670
Аудиокодек: FLAC (*.flac)
Тип рипа: tracks+.cue
Битрейт аудио: lossless
Продолжительность: 53:23
Источник (релизер): вот сиди
Наличие сканов в содержимом раздачи: да
Треклист:
1 Skeleton 8:21
2 Morning Group 8:22
3 Land Mass 7:50
4 Topics 6:53
5 Bearing 4:31
6 All-In-One 8:13
7 Super Spot 3:51
8 The Air Has Color 5:18
 
Лог создания рипа
Exact Audio Copy V0.99 prebeta 5 from 4. May 2009
EAC extraction logfile from 3. September 2010, 10:37
Joe Morris Bass Quartet / High Definition
Used drive : PLEXTOR DVDR PX-860A Adapter: 0 ID: 0
Read mode : Secure
Utilize accurate stream : Yes
Defeat audio cache : Yes
Make use of C2 pointers : No
Read offset correction : 96
Overread into Lead-In and Lead-Out : No
Fill up missing offset samples with silence : Yes
Delete leading and trailing silent blocks : No
Null samples used in CRC calculations : Yes
Used interface : Native Win32 interface for Win NT & 2000
Gap handling : Appended to previous track
Used output format : User Defined Encoder
Selected bitrate : 768 kBit/s
Quality : High
Add ID3 tag : No
Command line compressor : C:\Program Files\FLAC\flac.exe
Additional command line options : -8 -V -T "ARTIST=%a" -T "TITLE=%t" -T "ALBUM=%g" -T "DATE=%y" -T "TRACKNUMBER=%n" -T "TOTALTRACKS=%x" -T "GENRE=%m" -T "ALBUM ARTIST=%v" -T "ALBUMARTIST=%v" -T "COMMENT=EAC V0.99 prebeta 5, Secure Mode, Test & Copy, Accurat
TOC of the extracted CD
Track | Start | Length | Start sector | End sector
---------------------------------------------------------
1 | 0:00.00 | 8:21.04 | 0 | 37578
2 | 8:21.04 | 8:22.70 | 37579 | 75298
3 | 16:43.74 | 7:50.01 | 75299 | 110549
4 | 24:34.00 | 6:53.13 | 110550 | 141537
5 | 31:27.13 | 4:31.63 | 141538 | 161925
6 | 35:59.01 | 8:13.73 | 161926 | 198973
7 | 44:12.74 | 3:51.10 | 198974 | 216308
8 | 48:04.09 | 5:18.68 | 216309 | 240226
Track 1
Filename M:\DL\Joe Morris Bass Quartet - High Definition (2007) [FLAC]\01 - Skeleton.wav
Pre-gap length 0:00:02.00
Peak level 94.1 %
Track quality 100.0 %
Test CRC 95891936
Copy CRC 95891936
Accurately ripped (confidence 1) [3D0BABE0]
Copy OK
Track 2
Filename M:\DL\Joe Morris Bass Quartet - High Definition (2007) [FLAC]\02 - Morning Group.wav
Peak level 99.3 %
Track quality 100.0 %
Test CRC AFA8EC42
Copy CRC AFA8EC42
Accurately ripped (confidence 1) [D4D5A778]
Copy OK
Track 3
Filename M:\DL\Joe Morris Bass Quartet - High Definition (2007) [FLAC]\03 - Land Mass.wav
Peak level 99.7 %
Track quality 100.0 %
Test CRC 76D0F20F
Copy CRC 76D0F20F
Accurately ripped (confidence 1) [9840F4B1]
Copy OK
Track 4
Filename M:\DL\Joe Morris Bass Quartet - High Definition (2007) [FLAC]\04 - Topics.wav
Peak level 99.8 %
Track quality 100.0 %
Test CRC 76925FEC
Copy CRC 76925FEC
Accurately ripped (confidence 1) [862FA553]
Copy OK
Track 5
Filename M:\DL\Joe Morris Bass Quartet - High Definition (2007) [FLAC]\05 - Bearing.wav
Peak level 92.3 %
Track quality 100.0 %
Test CRC BFF53406
Copy CRC BFF53406
Accurately ripped (confidence 1) [655A17AE]
Copy OK
Track 6
Filename M:\DL\Joe Morris Bass Quartet - High Definition (2007) [FLAC]\06 - All-In-One.wav
Peak level 99.4 %
Track quality 100.0 %
Test CRC 13154C44
Copy CRC 13154C44
Accurately ripped (confidence 1) [4484984B]
Copy OK
Track 7
Filename M:\DL\Joe Morris Bass Quartet - High Definition (2007) [FLAC]\07 - Super Spot.wav
Peak level 99.3 %
Track quality 100.0 %
Test CRC FD334370
Copy CRC FD334370
Accurately ripped (confidence 1) [FB5F8E42]
Copy OK
Track 8
Filename M:\DL\Joe Morris Bass Quartet - High Definition (2007) [FLAC]\08 - The Air Has Color.wav
Peak level 98.4 %
Track quality 100.0 %
Test CRC 16E2457C
Copy CRC 16E2457C
Accurately ripped (confidence 1) [7F5CE829]
Copy OK
All tracks accurately ripped
No errors occurred
End of status report
 
Содержание индексной карты (.CUE)
REM GENRE Jazz
REM DATE 2007
REM DISCID 6F0C8308
REM COMMENT "ExactAudioCopy v0.99pb5"
PERFORMER "Joe Morris Bass Quartet"
TITLE "High Definition"
FILE "01 - Skeleton.flac" WAVE
TRACK 01 AUDIO
TITLE "Skeleton"
PERFORMER "Joe Morris Bass Quartet"
INDEX 01 00:00:00
FILE "02 - Morning Group.flac" WAVE
TRACK 02 AUDIO
TITLE "Morning Group"
PERFORMER "Joe Morris Bass Quartet"
INDEX 01 00:00:00
FILE "03 - Land Mass.flac" WAVE
TRACK 03 AUDIO
TITLE "Land Mass"
PERFORMER "Joe Morris Bass Quartet"
INDEX 01 00:00:00
FILE "04 - Topics.flac" WAVE
TRACK 04 AUDIO
TITLE "Topics"
PERFORMER "Joe Morris Bass Quartet"
INDEX 01 00:00:00
FILE "05 - Bearing.flac" WAVE
TRACK 05 AUDIO
TITLE "Bearing"
PERFORMER "Joe Morris Bass Quartet"
INDEX 01 00:00:00
FILE "06 - All-In-One.flac" WAVE
TRACK 06 AUDIO
TITLE "All-In-One"
PERFORMER "Joe Morris Bass Quartet"
INDEX 01 00:00:00
FILE "07 - Super Spot.flac" WAVE
TRACK 07 AUDIO
TITLE "Super Spot"
PERFORMER "Joe Morris Bass Quartet"
INDEX 01 00:00:00
FILE "08 - The Air Has Color.flac" WAVE
TRACK 08 AUDIO
TITLE "The Air Has Color"
PERFORMER "Joe Morris Bass Quartet"
INDEX 01 00:00:00
Доп. информация: Recorded December 15th, 2007 at Firehouse 12, New Haven, C.T.
 
Состав
Alto Saxophone, Soprano Saxophone, Baritone Saxophone – Allan Chase
Cornet, Trumpet, Flugelhorn – Taylor Ho Bynum
Double Bass – Joe Morris
Drums – Luther Gray
По всем вопросам пишите личное сообщение пользователю M0p94ok.
13:27
167
Нет комментариев. Ваш будет первым!