Вы используете незарегистрированную версию компонента "Вкладки"!

Поиск

(Free Jazz, Free Improvisation) Ivo Perelman & Dominic Duval - Soul Calling - 2006, FLAC (image+.cue), lossless - перераздача

(Free Jazz, Free Improvisation) Ivo Perelman & Dominic Duval - Soul Calling - 2006, FLAC (image+.cue), lossless - перераздача
Треклист:
Ivo Perelman & Dominic Duval - Soul Calling
Жанр: Free Jazz, Free Improvisation
Год выпуска диска: 2006
Производитель диска: USA (Cadence Jazz - a division of CIMP)
Аудио кодек: FLAC
Тип рипа: image+.cue
Битрейт аудио: lossless
Продолжительность: 68.33
Трэклист:
1. Soul Calling
2. Surrender To Uncertainty
3. Silkworm
4. 7 octaves, 7 days
5. Mingmen
6. Ametista
7. Unable To Deliver
8. M.S.M
9. Untitled
Доп. информация: Ivo Perelman - tenor sax
Dominic Duval - bass
торрент перезалит 14 апреля 2009 в 2-30 по москве. в предыдущей раздаче была таинственная "ошибка записи файла", причины которой я так и не понял. сделал рип заново - никаких ошибок не обнаружилось.
 
eac log
Exact Audio Copy V0.99 prebeta 4 from 23. January 2008
Отчёт EAC об извлечении, выполненном 14. апреля 2009, 2:26
Ivo Perelman - Dominic Duval / Soul Calling
Дисковод: Optiarc DVD RW AD-7170A Adapter: 0 ID: 1
Режим чтения : Достоверность
Использование точного потока : Да
Отключение кэша аудио : Да
Использование указателей C2 : Нет
Коррекция смещения при чтении : 48
Способность читать области Lead-in и Lead-out : Нет
Заполнение пропущенных сэмплов тишиной : Да
Удаление блоков с тишиной в начале и конце : Нет
При вычислениях CRC использовались нулевые сэмплы : Да
Интерфейс : Установленный внешний ASPI-интерфейс
Выходной формат : Пользовательский кодировщик
Выбранный битрейт : 768 kBit/s
Качество : Высокий
Добавление ID3-тэга : Нет
Утилита сжатия : C:\Program Files (x86)\Exact Audio Copy\FLAC\FLAC.EXE
Дополнительные параметры : -6 -V -T "ARTIST=%a" -T "TITLE=%t" -T "ALBUM=%g" -T "DATE=%y" -T "TRACKNUMBER=%n" -T "GENRE=%m" -T "COMMENT=%e" %s -o %d
TOC извлечённого CD
Трек | Старт | Длительность | Начальный сектор | Конечный сектор
---------------------------------------------------------------------
1 | 0:00.00 | 7:21.71 | 0 | 33145
2 | 7:21.71 | 14:36.22 | 33146 | 98867
3 | 21:58.18 | 13:59.64 | 98868 | 161856
4 | 35:58.07 | 1:51.48 | 161857 | 170229
5 | 37:49.55 | 5:09.72 | 170230 | 193476
6 | 42:59.52 | 9:37.39 | 193477 | 236790
7 | 52:37.16 | 2:23.60 | 236791 | 247575
8 | 55:01.01 | 3:23.36 | 247576 | 262836
9 | 58:24.37 | 10:08.65 | 262837 | 308501
Характеристики диапазона извлечения и сообщения об ошибках
Выбранный диапазон
Имя файла C:\Users\Роман\Documents\Ivo Perelman - Dominic Duval - Soul Calling retry.wav
Пиковый уровень 89.1 %
Качество диапазона 100.0 %
CRC копии 3FF66239
Копирование... OK
Ошибок не произошло
AccurateRip: сводка
Трек 1 нет в базе данных
Трек 2 нет в базе данных
Трек 3 нет в базе данных
Трек 4 нет в базе данных
Трек 5 нет в базе данных
Трек 6 нет в базе данных
Трек 7 нет в базе данных
Трек 8 нет в базе данных
Трек 9 нет в базе данных
Ни одного трека нет в базе AccurateRip
Конец отчёта
Any questions -> support@pro-jazz.com. По всем вопросам пишите -> support@pro-jazz.com
10:00
171
Нет комментариев. Ваш будет первым!