Вы используете незарегистрированную версию компонента "Вкладки"!

Поиск

(Free Jazz, Avant-Garde, ECM) Hal Russell NRG Ensemble - The Finnish/Swiss Tour - 1991, APE (image+.cue), lossless

(Free Jazz, Avant-Garde, ECM) Hal Russell NRG Ensemble - The Finnish/Swiss Tour - 1991, APE (image+.cue), lossless
Треклист:
Hal Russell NRG Ensemble - The Finnish/Swiss Tour
Жанр: Free Jazz, Avant-Garde, Post-Bop
Год выпуска диска: 1991
Производитель диска: Германия
Аудио кодек: APE
Тип рипа: image+.cue
Битрейт аудио: lossless
Продолжительность: 1:02:07
Трэклист:
1. Monica's Having A Baby (Russell) (5:59)
2. Aila/35 Basic (Russell) (7:17)
3. Temporarily (Hunt) (9:38)
4. Raining Violets (Sandstrom) (5:03)
5. For MC (Russell) (3:27)
6. Dance Of The Spider People (Williams) (4:22)
7. Ten Letters Of Love (Russell) (4:51)
8. Hal The Weenie (Russell) (7:33)
9. Linda's Rock Vamp (Russell) (4:04)
10. Mars Theme (Williams/Russell) (9:48)
Состав NRG ансамбля
Hal Russel* tenor and soprano saxophones trumpet vibraphone drums
Mars Williams tenor and soprano saxophones didgeridoo
Brian Sandstrom bass trumpet guitar
Kent Kessler bass bass guitar didgeridoo
Steve Hunt drums vibraphone didgeridoo
* урождённый Harold Luttenbacher, его именем был назван коллектив The Flying Luttenbachers, в котором он недолго играл.
The Flying Luttenbachers:
Systems Emerge From Complete Disorder [2003]
Infection And Decline [2002]
Retrospektiw IV [2002]
Alptraum [live] [2000]
 
Отчёт EAC
Exact Audio Copy V0.99 prebeta 4 from 23. January 2008
Отчёт EAC об извлечении, выполненном 13. апреля 2009, 23:21
Hal Russell NRG Ensemble / The Finnish/Swiss Tour
Дисковод: ASUS DRW-20B1LT Adapter: 0 ID: 0
Режим чтения : Достоверность
Использование точного потока : Да
Отключение кэша аудио : Да
Использование указателей C2 : Нет
Коррекция смещения при чтении : 6
Способность читать области Lead-in и Lead-out : Нет
Заполнение пропущенных сэмплов тишиной : Да
Удаление блоков с тишиной в начале и конце : Нет
При вычислениях CRC использовались нулевые сэмплы : Да
Интерфейс : Установленный внешний ASPI-интерфейс
Выходной формат : Внутренние WAV-операции
Формат сэмплов : 44.100 Гц; 16 бит; стерео
TOC извлечённого CD
Трек | Старт | Длительность | Начальный сектор | Конечный сектор
---------------------------------------------------------------------
1 | 0:00.33 | 5:59.50 | 33 | 27007
2 | 6:00.08 | 7:17.25 | 27008 | 59807
3 | 13:17.33 | 9:38.70 | 59808 | 103227
4 | 22:56.28 | 5:03.05 | 103228 | 125957
5 | 27:59.33 | 3:27.50 | 125958 | 141532
6 | 31:27.08 | 4:22.42 | 141533 | 161224
7 | 35:49.50 | 4:51.58 | 161225 | 183107
8 | 40:41.33 | 7:33.22 | 183108 | 217104
9 | 48:14.55 | 4:04.23 | 217105 | 235427
10 | 52:19.03 | 9:48.05 | 235428 | 279532
Характеристики диапазона извлечения и сообщения об ошибках
Выбранный диапазон
Имя файла D:\черновики\hal russel\Hal Russell NRG Ensemble - The Finnish Swiss Tour.wav
Пиковый уровень 100.0 %
Качество диапазона 99.8 %
CRC копии 76ED59CE
Копирование... OK
Ошибок не произошло
Конец отчёта
Any questions -> support@pro-jazz.com. По всем вопросам пишите -> support@pro-jazz.com
10:00
177
Нет комментариев. Ваш будет первым!