Вы используете незарегистрированную версию компонента "Вкладки"!

Поиск

(Free Jazz, Free Improvisation) Frode Gjerstad, John Edwards, Mark Sanders - Bergen - 2009, FLAC (tracks+.cue) lossless

(Free Jazz, Free Improvisation) Frode Gjerstad, John Edwards, Mark Sanders - Bergen - 2009, FLAC (tracks+.cue) lossless
Треклист:
Frode Gjerstad, John Edwards, Mark Sanders / Bergen
Жанр: Free Jazz, Free Improvisation
Страна-производитель диска: Великобритания
Год издания диска: 2009
Издатель (лейбл): FMR
Номер по каталогу: FMRCD269-0209
Страна: Норвегия, Великобритания
Аудио кодек: FLAC (*.flac)
Тип рипа: tracks+.cue
Битрейт аудио: lossless
Продолжительность: 51:48
Источник (релизер): другой трекер (iwals)
Наличие сканов в содержимом раздачи: да
Треклист:
Waiting For Ryanair Part 1
Waiting For Ryanair Part 2
Waiting For Ryanair Part 3
Waiting For Ryanair Part 4
 
Лог создания рипа
Exact Audio Copy V0.99 prebeta 4 from 23. January 2008
EAC extraction logfile from 13. February 2010, 13:31
Frode Gjerstad, John Edwards, Mark Sanders / Bergen
Used drive : AHOTKF SHAFGD2BKX2N Adapter: 3 ID: 0
Read mode : Secure
Utilize accurate stream : Yes
Defeat audio cache : Yes
Make use of C2 pointers : No
Read offset correction : 667
Overread into Lead-In and Lead-Out : No
Fill up missing offset samples with silence : Yes
Delete leading and trailing silent blocks : No
Null samples used in CRC calculations : Yes
Used interface : Native Win32 interface for Win NT & 2000
Gap handling : Appended to previous track
Used output format : User Defined Encoder
Selected bitrate : 768 kBit/s
Quality : High
Add ID3 tag : No
Command line compressor : D:\Audio\Exact Audio Copy\FLAC\FLAC.EXE
Additional command line options : -6 -V -T "ARTIST=%a" -T "TITLE=%t" -T "ALBUM=%g" -T "DATE=%y" -T "TRACKNUMBER=%n" -T "GENRE=%m" -T "COMMENT=%e" %s -o %d
TOC of the extracted CD
Track | Start | Length | Start sector | End sector
---------------------------------------------------------
1 | 0:00.00 | 10:43.51 | 0 | 48275
2 | 10:43.51 | 12:23.67 | 48276 | 104067
3 | 23:07.43 | 21:06.55 | 104068 | 199072
4 | 44:14.23 | 7:33.72 | 199073 | 233119
Track 1
Filename E:\!!New Rip\Frode Gjerstad, John Edwards, Mark Sanders - Bergen\01 - Waiting For Ryanair Part 1.wav
Pre-gap length 0:00:02.00
Peak level 94.4 %
Track quality 100.0 %
Test CRC FA63ABA1
Copy CRC FA63ABA1
Copy OK
Track 2
Filename E:\!!New Rip\Frode Gjerstad, John Edwards, Mark Sanders - Bergen\02 - Waiting For Ryanair Part 2.wav
Peak level 94.4 %
Track quality 100.0 %
Test CRC EFE4C65E
Copy CRC EFE4C65E
Copy OK
Track 3
Filename E:\!!New Rip\Frode Gjerstad, John Edwards, Mark Sanders - Bergen\03 - Waiting For Ryanair Part 3.wav
Peak level 94.4 %
Track quality 100.0 %
Test CRC 2F4C0017
Copy CRC 2F4C0017
Copy OK
Track 4
Filename E:\!!New Rip\Frode Gjerstad, John Edwards, Mark Sanders - Bergen\04 - Waiting For Ryanair Part 4.wav
Peak level 94.4 %
Track quality 99.9 %
Test CRC 38A2A27A
Copy CRC 38A2A27A
Copy OK
No errors occurred
End of status report
 
Содержание индексной карты (.CUE)
REM GENRE Jazz
REM DATE 2009
REM DISCID 390C2404
REM COMMENT "ExactAudioCopy v0.99pb4"
PERFORMER "Frode Gjerstad, John Edwards, Mark Sanders"
TITLE "Bergen "
FILE "01 - Waiting For Ryanair Part 1.wav" WAVE
TRACK 01 AUDIO
TITLE "Waiting For Ryanair Part 1"
PERFORMER "Frode Gjerstad, John Edwards, Mark Sanders"
INDEX 01 00:00:00
FILE "02 - Waiting For Ryanair Part 2.wav" WAVE
TRACK 02 AUDIO
TITLE "Waiting For Ryanair Part 2"
PERFORMER "Frode Gjerstad, John Edwards, Mark Sanders"
INDEX 01 00:00:00
FILE "03 - Waiting For Ryanair Part 3.wav" WAVE
TRACK 03 AUDIO
TITLE "Waiting For Ryanair Part 3"
PERFORMER "Frode Gjerstad, John Edwards, Mark Sanders"
INDEX 01 00:00:00
TRACK 04 AUDIO
TITLE "Waiting For Ryanair Part 4"
PERFORMER "Frode Gjerstad, John Edwards, Mark Sanders"
INDEX 00 21:03:55
FILE "04 - Waiting For Ryanair Part 4.wav" WAVE
INDEX 01 00:00:00
 
Лог проверки качества
AUDIOCHECKER v2.0 beta (build 457) - by Dester - opdester@freemail.hu
~~~~~~~~~~~~~~~~~~~~~~~~~~~~~~~~~~
-=== DO NOT EDIT THIS FILE! ===-
Path: ...\Frode Gjerstad, John Edwards, Mark Sanders - Bergen (2009) [FLAC]
1 -=- 01 - Waiting For Ryanair Part 1.flac -=- CDDA (100%)
2 -=- 02 - Waiting For Ryanair Part 2.flac -=- CDDA (100%)
3 -=- 03 - Waiting For Ryanair Part 3.flac -=- CDDA (100%)
4 -=- 04 - Waiting For Ryanair Part 4.flac -=- CDDA (100%)
Summary 100,00% CDDA
251094548
 
Состав
Frode Gjerstad alto saxophone and clarinets
John Edwards acoustic bass
Mark Sanders drums and percussion
Any questions -> support@pro-jazz.com. По всем вопросам пишите -> support@pro-jazz.com
06:11
161
Нет комментариев. Ваш будет первым!