Вы используете незарегистрированную версию компонента "Вкладки"!

Поиск

(Free Jazz, Free Improvisation) Bennink / Gjerstad - Han & Frode - 2009, FLAC (tracks+.cue) lossless

(Free Jazz, Free Improvisation) Bennink / Gjerstad - Han & Frode - 2009, FLAC (tracks+.cue) lossless
Треклист:
Bennink / Gjerstad
Han & Frode
Жанр: Free Jazz, Free Improvisation
Страна-производитель диска: США
Год издания диска: 2009
Издатель (лейбл): Cadence Jazz Records
Номер по каталогу: 1227
Страна: Нидерланды, Норвегия
Аудио кодек: FLAC (*.flac)
Тип рипа: tracks+.cue
Битрейт аудио: lossless
Продолжительность: 1:00:35
Источник (релизер): другой трекер (iwals)
Наличие сканов в содержимом раздачи: да
Треклист:
Inderøy part 1
Inderøy part 2
Inderøy part 3
Inderøy part 4
Inderøy part 5
Inderøy part 6
 
Лог создания рипа
Exact Audio Copy V0.99 prebeta 4 from 23. January 2008
EAC extraction logfile from 16. January 2010, 17:51
Han Bennink & Frode Gjerstad / Han & Frode
Used drive : HL-DT-STBDDVDRW GGC-H20L Adapter: 1 ID: 0
Read mode : Secure
Utilize accurate stream : Yes
Defeat audio cache : Yes
Make use of C2 pointers : No
Read offset correction : 667
Overread into Lead-In and Lead-Out : No
Fill up missing offset samples with silence : Yes
Delete leading and trailing silent blocks : No
Null samples used in CRC calculations : Yes
Used interface : Native Win32 interface for Win NT & 2000
Gap handling : Appended to previous track
Used output format : User Defined Encoder
Selected bitrate : 768 kBit/s
Quality : High
Add ID3 tag : No
Command line compressor : D:\Audio\Exact Audio Copy\FLAC\FLAC.EXE
Additional command line options : -V -8 -T "artist=%a" -T "title=%t" -T "album=%g" -T "date=%y" -T "tracknumber=%n" -T "genre=%m" %s
TOC of the extracted CD
Track | Start | Length | Start sector | End sector
---------------------------------------------------------
1 | 0:00.00 | 12:03.24 | 0 | 54248
2 | 12:03.24 | 7:18.33 | 54249 | 87131
3 | 19:21.57 | 15:20.69 | 87132 | 156200
4 | 34:42.51 | 7:55.40 | 156201 | 191865
5 | 42:38.16 | 15:20.47 | 191866 | 260912
6 | 57:58.63 | 2:35.66 | 260913 | 272603
Track 1
Filename E:\!!New Rip\Han Bennink & Frode Gjerstad - Han & Frode\01 - part 1.wav
Pre-gap length 0:00:02.00
Peak level 94.4 %
Track quality 100.0 %
Test CRC 889C5031
Copy CRC 889C5031
Track not present in AccurateRip database
Copy OK
Track 2
Filename E:\!!New Rip\Han Bennink & Frode Gjerstad - Han & Frode\02 - part 2.wav
Peak level 94.4 %
Track quality 100.0 %
Test CRC 5DC6C084
Copy CRC 5DC6C084
Track not present in AccurateRip database
Copy OK
Track 3
Filename E:\!!New Rip\Han Bennink & Frode Gjerstad - Han & Frode\03 - part 3.wav
Peak level 94.4 %
Track quality 100.0 %
Test CRC D0B11D8C
Copy CRC D0B11D8C
Track not present in AccurateRip database
Copy OK
Track 4
Filename E:\!!New Rip\Han Bennink & Frode Gjerstad - Han & Frode\04 - part 4.wav
Peak level 94.4 %
Track quality 100.0 %
Test CRC 00751851
Copy CRC 00751851
Track not present in AccurateRip database
Copy OK
Track 5
Filename E:\!!New Rip\Han Bennink & Frode Gjerstad - Han & Frode\05 - part 5.wav
Peak level 94.4 %
Track quality 100.0 %
Test CRC 02AFC0B6
Copy CRC 02AFC0B6
Track not present in AccurateRip database
Copy OK
Track 6
Filename E:\!!New Rip\Han Bennink & Frode Gjerstad - Han & Frode\06 - part 6.wav
Peak level 94.4 %
Track quality 100.0 %
Test CRC 9C2D979E
Copy CRC 9C2D979E
Track not present in AccurateRip database
Copy OK
None of the tracks are present in the AccurateRip database
No errors occurred
End of status report
 
Содержание индексной карты (.CUE)
REM GENRE Jazz
REM DATE 2009
REM DISCID 450E3206
REM COMMENT "ExactAudioCopy v0.99pb4"
PERFORMER "Han Bennink & Frode Gjerstad"
TITLE "Han & Frode"
FILE "01 - part 1.wav" WAVE
TRACK 01 AUDIO
TITLE "part 1"
PERFORMER "Han Bennink & Frode Gjerstad"
INDEX 01 00:00:00
FILE "02 - part 2.wav" WAVE
TRACK 02 AUDIO
TITLE "part 2"
PERFORMER "Han Bennink & Frode Gjerstad"
INDEX 01 00:00:00
FILE "03 - part 3.wav" WAVE
TRACK 03 AUDIO
TITLE "part 3"
PERFORMER "Han Bennink & Frode Gjerstad"
INDEX 01 00:00:00
FILE "04 - part 4.wav" WAVE
TRACK 04 AUDIO
TITLE "part 4"
PERFORMER "Han Bennink & Frode Gjerstad"
INDEX 01 00:00:00
FILE "05 - part 5.wav" WAVE
TRACK 05 AUDIO
TITLE "part 5"
PERFORMER "Han Bennink & Frode Gjerstad"
INDEX 01 00:00:00
FILE "06 - part 6.wav" WAVE
TRACK 06 AUDIO
TITLE "part 6"
PERFORMER "Han Bennink & Frode Gjerstad"
INDEX 01 00:00:00
 
Лог проверки качества
AUDIOCHECKER v2.0 beta (build 457) - by Dester - opdester@freemail.hu
~~~~~~~~~~~~~~~~~~~~~~~~~~~~~~~~~~
-=== DO NOT EDIT THIS FILE! ===-
Path: ...\Han Bennink & Frode Gjerstad - Han & Frode (2009) [FLAC]
1 -=- 01 - part 1.flac -=- CDDA (100%)
2 -=- 02 - part 2.flac -=- CDDA (100%)
3 -=- 03 - part 3.flac -=- CDDA (100%)
4 -=- 04 - part 4.flac -=- CDDA (99%)
5 -=- 05 - part 5.flac -=- CDDA (100%)
6 -=- 06 - part 6.flac -=- CDDA (99%)
Summary 99,67% CDDA
243314868
 
Состав
Han Bennink - drums, percussion
Frode Gjerstad - alto saxophone, B flat and bass clarinets
По всем вопросам пишите личное сообщение пользователю M0p94ok.
06:10
154
Нет комментариев. Ваш будет первым!