Вы используете незарегистрированную версию компонента "Вкладки"!

Поиск

(Free Jazz, Free Improvisation) Frank Lowe Quartet - Lowe-down & Blue - 2002, FLAC (tracks+.cue) lossless

Треклист:
Frank Lowe Quartet / Lowe-down & Blue
Жанр: Free Jazz, Free Improvisation
Страна-производитель диска: US
Год издания диска: 2002
Издатель (лейбл): CIMP
Номер по каталогу: CIMP #275
Страна: US
Аудио кодек: FLAC (*.flac)
Тип рипа: tracks+.cue
Битрейт аудио: lossless
Продолжительность: 65:17
Источник (релизер): avaxhome.ws
Наличие сканов в содержимом раздачи: да
Треклист:
1. Dewey's Tune 5:46
2. Who Does She Hope To Be 9:47
3. Four Or Less 3:36
4. Lowe-down & Blue 5:17
5. Riff Raff 4:47
6. Waiting In Sorrow 4:29
7. Crazy 6:18
8. Little Rock's Lament 5:11
9. Zoomtipski 5:56
10. Cherryco 5:33
11. Thabo 2:42
12. Candu 5:48
 
Лог создания рипа
Exact Audio Copy V0.99 prebeta 5 from 4. May 2009
EAC extraction logfile from 7. March 2011, 20:16
Frank LOWE Quartet / Lowe-down & Blue
Used drive : HL-DT-STDVD-RAM GSA-H55N Adapter: 0 ID: 0
Read mode : Secure
Utilize accurate stream : Yes
Defeat audio cache : Yes
Make use of C2 pointers : No
Read offset correction : 102
Overread into Lead-In and Lead-Out : No
Fill up missing offset samples with silence : Yes
Delete leading and trailing silent blocks : No
Null samples used in CRC calculations : Yes
Used interface : Native Win32 interface for Win NT & 2000
Gap handling : Appended to previous track
Used output format : Internal WAV Routines
Sample format : 44.100 Hz; 16 Bit; Stereo
TOC of the extracted CD
Track | Start | Length | Start sector | End sector
---------------------------------------------------------
1 | 0:00.00 | 5:46.09 | 0 | 25958
2 | 5:46.09 | 9:47.07 | 25959 | 69990
3 | 15:33.16 | 3:36.47 | 69991 | 86237
4 | 19:09.63 | 5:17.60 | 86238 | 110072
5 | 24:27.48 | 4:47.46 | 110073 | 131643
6 | 29:15.19 | 4:29.73 | 131644 | 151891
7 | 33:45.17 | 6:18.30 | 151892 | 180271
8 | 40:03.47 | 5:11.68 | 180272 | 203664
9 | 45:15.40 | 5:56.68 | 203665 | 230432
10 | 51:12.33 | 5:33.73 | 230433 | 255480
11 | 56:46.31 | 2:42.03 | 255481 | 267633
12 | 59:28.34 | 5:48.47 | 267634 | 293780
Track 1
Filename D:\_Music myRips\Frank Lowe - Lowe-Down & Blue [2002]\[2002] Frank Lowe - Lowe-Down & Blue (wav)\01 - Dewey's Tune.wav
Pre-gap length 0:00:02.00
Peak level 100.0 %
Track quality 100.0 %
Test CRC A3607C53
Copy CRC A3607C53
Track not present in AccurateRip database
Copy OK
Track 2
Filename D:\_Music myRips\Frank Lowe - Lowe-Down & Blue [2002]\[2002] Frank Lowe - Lowe-Down & Blue (wav)\02 - Who Does She Hope to Be.wav
Peak level 56.8 %
Track quality 99.9 %
Test CRC C7AE49FB
Copy CRC C7AE49FB
Track not present in AccurateRip database
Copy OK
Track 3
Filename D:\_Music myRips\Frank Lowe - Lowe-Down & Blue [2002]\[2002] Frank Lowe - Lowe-Down & Blue (wav)\03 - Four or Less.wav
Peak level 73.3 %
Track quality 100.0 %
Test CRC 6CB49893
Copy CRC 6CB49893
Track not present in AccurateRip database
Copy OK
Track 4
Filename D:\_Music myRips\Frank Lowe - Lowe-Down & Blue [2002]\[2002] Frank Lowe - Lowe-Down & Blue (wav)\04 - Lowe-down & Blue.wav
Peak level 92.4 %
Track quality 99.9 %
Test CRC 718882AD
Copy CRC 718882AD
Track not present in AccurateRip database
Copy OK
Track 5
Filename D:\_Music myRips\Frank Lowe - Lowe-Down & Blue [2002]\[2002] Frank Lowe - Lowe-Down & Blue (wav)\05 - Riff Raff.wav
Peak level 67.2 %
Track quality 100.0 %
Test CRC 5673F3D0
Copy CRC 5673F3D0
Track not present in AccurateRip database
Copy OK
Track 6
Filename D:\_Music myRips\Frank Lowe - Lowe-Down & Blue [2002]\[2002] Frank Lowe - Lowe-Down & Blue (wav)\06 - Waiting in Sorrow.wav
Peak level 25.6 %
Track quality 99.9 %
Test CRC 5405AFE0
Copy CRC 5405AFE0
Track not present in AccurateRip database
Copy OK
Track 7
Filename D:\_Music myRips\Frank Lowe - Lowe-Down & Blue [2002]\[2002] Frank Lowe - Lowe-Down & Blue (wav)\07 - Crazy.wav
Peak level 44.5 %
Track quality 100.0 %
Test CRC 4D227B08
Copy CRC 4D227B08
Track not present in AccurateRip database
Copy OK
Track 8
Filename D:\_Music myRips\Frank Lowe - Lowe-Down & Blue [2002]\[2002] Frank Lowe - Lowe-Down & Blue (wav)\08 - Little Rock's Lament.wav
Peak level 95.5 %
Track quality 100.0 %
Test CRC BAD97CDD
Copy CRC BAD97CDD
Track not present in AccurateRip database
Copy OK
Track 9
Filename D:\_Music myRips\Frank Lowe - Lowe-Down & Blue [2002]\[2002] Frank Lowe - Lowe-Down & Blue (wav)\09 - Zoomtipski.wav
Peak level 98.2 %
Track quality 100.0 %
Test CRC D08B8143
Copy CRC D08B8143
Track not present in AccurateRip database
Copy OK
Track 10
Filename D:\_Music myRips\Frank Lowe - Lowe-Down & Blue [2002]\[2002] Frank Lowe - Lowe-Down & Blue (wav)\10 - Cherryco.wav
Peak level 100.0 %
Track quality 100.0 %
Test CRC EBAE532D
Copy CRC EBAE532D
Track not present in AccurateRip database
Copy OK
Track 11
Filename D:\_Music myRips\Frank Lowe - Lowe-Down & Blue [2002]\[2002] Frank Lowe - Lowe-Down & Blue (wav)\11 - Thabo.wav
Peak level 35.2 %
Track quality 99.9 %
Test CRC 48EDECFD
Copy CRC 48EDECFD
Track not present in AccurateRip database
Copy OK
Track 12
Filename D:\_Music myRips\Frank Lowe - Lowe-Down & Blue [2002]\[2002] Frank Lowe - Lowe-Down & Blue (wav)\12 - Candu.wav
Peak level 100.0 %
Track quality 100.0 %
Test CRC D9A963BC
Copy CRC D9A963BC
Track not present in AccurateRip database
Copy OK
None of the tracks are present in the AccurateRip database
No errors occurred
End of status report
 
Содержание индексной карты (.CUE)
REM DISCID A50F4D0C
REM COMMENT "ExactAudioCopy v0.99pb5"
PERFORMER "Frank LOWE Quartet"
TITLE "Lowe-down & Blue"
FILE "01 - Dewey's Tune.wav" WAVE
TRACK 01 AUDIO
TITLE "Dewey's Tune"
PERFORMER "Frank LOWE Quartet"
INDEX 01 00:00:00
FILE "02 - Who Does She Hope to Be.wav" WAVE
TRACK 02 AUDIO
TITLE "Who Does She Hope to Be"
PERFORMER "Frank LOWE Quartet"
INDEX 01 00:00:00
FILE "03 - Four or Less.wav" WAVE
TRACK 03 AUDIO
TITLE "Four or Less"
PERFORMER "Frank LOWE Quartet"
INDEX 01 00:00:00
FILE "04 - Lowe-down & Blue.wav" WAVE
TRACK 04 AUDIO
TITLE "Lowe-down & Blue"
PERFORMER "Frank LOWE Quartet"
INDEX 01 00:00:00
FILE "05 - Riff Raff.wav" WAVE
TRACK 05 AUDIO
TITLE "Riff Raff"
PERFORMER "Frank LOWE Quartet"
INDEX 01 00:00:00
FILE "06 - Waiting in Sorrow.wav" WAVE
TRACK 06 AUDIO
TITLE "Waiting in Sorrow"
PERFORMER "Frank LOWE Quartet"
INDEX 01 00:00:00
FILE "07 - Crazy.wav" WAVE
TRACK 07 AUDIO
TITLE "Crazy"
PERFORMER "Frank LOWE Quartet"
INDEX 01 00:00:00
FILE "08 - Little Rock's Lament.wav" WAVE
TRACK 08 AUDIO
TITLE "Little Rock's Lament"
PERFORMER "Frank LOWE Quartet"
INDEX 01 00:00:00
FILE "09 - Zoomtipski.wav" WAVE
TRACK 09 AUDIO
TITLE "Zoomtipski"
PERFORMER "Frank LOWE Quartet"
INDEX 01 00:00:00
FILE "10 - Cherryco.wav" WAVE
TRACK 10 AUDIO
TITLE "Cherryco"
PERFORMER "Frank LOWE Quartet"
INDEX 01 00:00:00
FILE "11 - Thabo.wav" WAVE
TRACK 11 AUDIO
TITLE "Thabo"
PERFORMER "Frank LOWE Quartet"
INDEX 01 00:00:00
FILE "12 - Candu.wav" WAVE
TRACK 12 AUDIO
TITLE "Candu"
PERFORMER "Frank LOWE Quartet"
INDEX 01 00:00:00
 
Лог проверки качества
d:\>d:\aucdtect -d/-m0 d:\zzz\*.wav
auCDtect: CD records authenticity detector, version 0.8.2
Copyright (c) 2004 Oleg Berngardt. All rights reserved.
Copyright (c) 2004 Alexander Djourik. All rights reserved.
------------------------------------------------------------
Processing file: [01. Dewey's Tune.wav]
------------------------------------------------------------
This track looks like CDDA with probability 100%
------------------------------------------------------------
Processing file: [02. Who Does She Hope to Be.wav]
------------------------------------------------------------
This track looks like CDDA with probability 100%
------------------------------------------------------------
Processing file: [03. Four or Less.wav]
------------------------------------------------------------
This track looks like CDDA with probability 100%
------------------------------------------------------------
Processing file: [04. Lowe-down & Blue.wav]
------------------------------------------------------------
This track looks like CDDA with probability 100%
------------------------------------------------------------
Processing file: [05. Riff Raff.wav]
------------------------------------------------------------
This track looks like CDDA with probability 100%
------------------------------------------------------------
Processing file: [06. Waiting in Sorrow.wav]
------------------------------------------------------------
This track looks like CDDA with probability 100%
------------------------------------------------------------
Processing file: [07. Crazy.wav]
------------------------------------------------------------
This track looks like CDDA with probability 100%
------------------------------------------------------------
Processing file: [08. Little Rock's Lament.wav]
------------------------------------------------------------
This track looks like CDDA with probability 100%
------------------------------------------------------------
Processing file: [09. Zoomtipski.wav]
------------------------------------------------------------
This track looks like CDDA with probability 100%
------------------------------------------------------------
Processing file: [10. Cherryco.wav]
------------------------------------------------------------
This track looks like CDDA with probability 100%
------------------------------------------------------------
Processing file: [11. Thabo.wav]
------------------------------------------------------------
This track looks like CDDA with probability 100%
------------------------------------------------------------
Processing file: [12. Candu.wav]
------------------------------------------------------------
This track looks like CDDA with probability 100%
------------------------------------------------------------
Final Conclusion:
------------------------------------------------------------
These tracks looks like CDDA with probability 100%
 
Скриншот спектра частот
Доп. информация:
 
Album Info
Recorded at The Spirit Room, Rossie, NY, September 16, 2002.
 
Состав
Frank Lowe: tenor saxophone
Berne Nix: guitar
Dominic Duval: bass
Michael Carvin: drums
Any questions -> support@pro-jazz.com. По всем вопросам пишите -> support@pro-jazz.com
10:19
161
Нет комментариев. Ваш будет первым!