Вы используете незарегистрированную версию компонента "Вкладки"!

Поиск

(Contemporary Jazz, Avant-Garde) Rena Rama - The Lost Tapes - 1998, APE (tracks+.cue) lossless

Треклист:
Rena Rama / The Lost Tapes
Жанр: Contemporary Jazz, Avant-Garde
Страна-производитель диска: Sweden
Год издания диска: 1998
Издатель (лейбл): Amigo Music AB
Номер по каталогу: AMCD883
Аудио кодек: APE (*.ape)
Тип рипа: tracks+.cue
Битрейт аудио: lossless
Продолжительность: 52:36
Источник (релизер): zakukak (NoNaMe)
Наличие сканов в содержимом раздачи: да
Треклист:
01. Lisas Piano
02. Green Piece
03. Gentle Piece
04. Dr. Time
05. Miold Man
06. Blue for Lou
 
Лог создания рипа
Exact Audio Copy V0.99 prebeta 4 from 23. January 2008
Отчёт EAC об извлечении, выполненном 6. сентября 2009, 19:08
Rena Rama / The Lost Tapes
Дисковод: PIONEER DVD-RW DVR-111D Adapter: 1 ID: 0
Режим чтения : Достоверность
Использование точного потока : Да
Отключение кэша аудио : Да
Использование указателей C2 : Нет
Коррекция смещения при чтении : 48
Способность читать области Lead-in и Lead-out : Нет
Заполнение пропущенных сэмплов тишиной : Да
Удаление блоков с тишиной в начале и конце : Да
При вычислениях CRC использовались нулевые сэмплы : Нет
Интерфейс : Установленный внешний ASPI-интерфейс
Обработка зазоров : Добавлено к предыдущему треку
Выходной формат : Monkey's Audio (без потерь)
Выбранный битрейт : Extra High Lossless Compression
Качество : Высокий
Добавление ID3-тэга : Нет
Утилита сжатия : H:\Program Files\Monkey's Audio\MAC.exe
TOC извлечённого CD
Трек | Старт | Длительность | Начальный сектор | Конечный сектор
---------------------------------------------------------------------
1 | 0:00.00 | 8:15.65 | 0 | 37189
2 | 8:15.65 | 8:19.05 | 37190 | 74619
3 | 16:34.70 | 9:28.20 | 74620 | 117239
4 | 26:03.15 | 8:00.32 | 117240 | 153271
5 | 34:03.47 | 6:43.73 | 153272 | 183569
6 | 40:47.45 | 12:19.10 | 183570 | 239004
Трек 1
Имя файла D:\MUSIC\Rena Rama - The Lost Tapes (1998) Jazz Sweden\Rena Rama - Lisas Piano.wav
Длина предзазора 0:00:02.00
Пиковый уровень 99.8 %
Качество трека 100.0 %
CRC копии 163D93A3
Копирование... OK
Трек 2
Имя файла D:\MUSIC\Rena Rama - The Lost Tapes (1998) Jazz Sweden\Rena Rama - Green Piece.wav
Длина предзазора 0:00:04.30
Пиковый уровень 99.9 %
Качество трека 99.9 %
CRC копии CA347E25
Копирование... OK
Трек 3
Имя файла D:\MUSIC\Rena Rama - The Lost Tapes (1998) Jazz Sweden\Rena Rama - Gentle Piece.wav
Длина предзазора 0:00:03.65
Пиковый уровень 99.9 %
Качество трека 100.0 %
CRC копии D2F7D7F4
Копирование... OK
Трек 4
Имя файла D:\MUSIC\Rena Rama - The Lost Tapes (1998) Jazz Sweden\Rena Rama - Dr. Time.wav
Длина предзазора 0:00:04.05
Пиковый уровень 99.9 %
Качество трека 100.0 %
CRC копии 63653C05
Копирование... OK
Трек 5
Имя файла D:\MUSIC\Rena Rama - The Lost Tapes (1998) Jazz Sweden\Rena Rama - Miold Man.wav
Длина предзазора 0:00:04.15
Пиковый уровень 99.9 %
Качество трека 100.0 %
CRC копии F76E0371
Копирование... OK
Трек 6
Имя файла D:\MUSIC\Rena Rama - The Lost Tapes (1998) Jazz Sweden\Rena Rama - Blue for Lou.wav
Длина предзазора 0:00:05.73
Пиковый уровень 99.8 %
Качество трека 100.0 %
CRC копии 7BD51B0F
Копирование... OK
Ошибок не произошло
Конец отчёта
 
Содержание индексной карты (.CUE)
REM GENRE Jazz
REM DATE 1998
REM DISCID 5D0C7206
REM COMMENT "ExactAudioCopy v0.99pb4"
PERFORMER "Rena Rama"
TITLE "The Lost Tapes"
FILE "Rena Rama - Lisas Piano.wav" WAVE
TRACK 01 AUDIO
TITLE "Lisas Piano"
PERFORMER "Rena Rama"
INDEX 01 00:00:00
TRACK 02 AUDIO
TITLE "Green Piece"
PERFORMER "Rena Rama"
INDEX 00 08:11:35
FILE "Rena Rama - Green Piece.wav" WAVE
INDEX 01 00:00:00
TRACK 03 AUDIO
TITLE "Gentle Piece"
PERFORMER "Rena Rama"
INDEX 00 08:15:15
FILE "Rena Rama - Gentle Piece.wav" WAVE
INDEX 01 00:00:00
TRACK 04 AUDIO
TITLE "Dr. Time"
PERFORMER "Rena Rama"
INDEX 00 09:24:15
FILE "Rena Rama - Dr. Time.wav" WAVE
INDEX 01 00:00:00
TRACK 05 AUDIO
TITLE "Miold Man"
PERFORMER "Rena Rama"
INDEX 00 07:56:17
FILE "Rena Rama - Miold Man.wav" WAVE
INDEX 01 00:00:00
TRACK 06 AUDIO
TITLE "Blue for Lou"
PERFORMER "Rena Rama"
INDEX 00 06:38:00
FILE "Rena Rama - Blue for Lou.wav" WAVE
INDEX 01 00:00:00
 
Состав
Bobo Stenson piano
Lennart Aberg sax
Anders Jormin double bass
Guests:
Kenny Wheeler trumpet, fluegelhorn
Billy Hart drums
Any questions -> support@pro-jazz.com. По всем вопросам пишите -> support@pro-jazz.com
10:18
187
Нет комментариев. Ваш будет первым!