Вы используете незарегистрированную версию компонента "Вкладки"!

Поиск

(Free Jazz, Free Improvisation, FMR) Trevor Watts Moire Music - With One Voice - 1988, FLAC (tracks+.cue), lossless

(Free Jazz, Free Improvisation, FMR) Trevor Watts Moire Music - With One Voice - 1988, FLAC (tracks+.cue), lossless
Треклист:
Trevor Watts Moire Music / With One Voice
Жанр: Free Jazz, Free Improvisation, FMR
Страна-производитель диска: UK
Год издания: 2002
Издатель (лейбл): FMR Records
Номер по каталогу: FMRCD108-L1002
Страна: UK
Аудиокодек: FLAC (*.flac)
Тип рипа: tracks+.cue
Битрейт аудио: lossless
Продолжительность: 57:55
Источник (релизер): свой фирменный диск
Наличие сканов в содержимом раздачи:
Треклист:
1 Themes For America No. 1 12:38
2 Need We Ever Say Goodbye? 8:27
3 Themes For America No. 2 19:38
4 Themes For America No. 4 17:12
 
Лог создания рипа
Exact Audio Copy V1.0 beta 3 from 29. August 2011
EAC extraction logfile from 21. June 2013, 23:26
Trevor Watts Moire Music / With One Voice
Used drive : PIONEER DVD-RW DVR-115D Adapter: 0 ID: 0
Read mode : Secure
Utilize accurate stream : Yes
Defeat audio cache : Yes
Make use of C2 pointers : No
Read offset correction : 48
Overread into Lead-In and Lead-Out : No
Fill up missing offset samples with silence : Yes
Delete leading and trailing silent blocks : No
Null samples used in CRC calculations : Yes
Used interface : Installed external ASPI interface
Gap handling : Appended to previous track
Used output format : User Defined Encoder
Selected bitrate : 896 kBit/s
Quality : High
Add ID3 tag : No
Command line compressor : C:\Program Files\Exact Audio Copy\FLAC\FLAC.EXE
Additional command line options : -6 -V -T "ARTIST=%artist%" -T "TITLE=%title%" -T "ALBUM=%albumtitle%" -T "DATE=%year%" -T "TRACKNUMBER=%tracknr%" -T "GENRE=%genre%" -T "COMMENT=%comment%" -T "BAND=%albuminterpret%" -T "COMPOSER=%composer%" %haslyrics%--tag-from-file=LYRICS="%lyricsfile%"%haslyrics% -T "DISCNUMBER=%cdnumber%" -T "TOTALDISCS=%totalcds%" -T "TOTALTRACKS=%numtracks%" %hascover%--picture="%coverfile%"%hascover% %source% -o %dest%
TOC of the extracted CD
Track | Start | Length | Start sector | End sector
---------------------------------------------------------
1 | 0:00.00 | 12:38.27 | 0 | 56876
2 | 12:38.27 | 8:26.68 | 56877 | 94894
3 | 21:05.20 | 19:38.30 | 94895 | 183274
4 | 40:43.50 | 17:11.66 | 183275 | 260665
Track 1
Filename D:\zzz\01 - Themes for America No.1.wav
Pre-gap length 0:00:02.00
Peak level 78.6 %
Extraction speed 5.2 X
Track quality 100.0 %
Test CRC 8758B2E6
Copy CRC 8758B2E6
Accurately ripped (confidence 2) [1A01A70A] (AR v1)
Copy OK
Track 2
Filename D:\zzz\02 - Need We Ever Say Goodbye.wav
Peak level 85.8 %
Extraction speed 6.1 X
Track quality 100.0 %
Test CRC 2A7A7AC5
Copy CRC 2A7A7AC5
Accurately ripped (confidence 2) [C8071DC5] (AR v1)
Copy OK
Track 3
Filename D:\zzz\03 - Themes for America No.2.wav
Peak level 92.8 %
Extraction speed 7.4 X
Track quality 100.0 %
Test CRC 3CCD6DDA
Copy CRC 3CCD6DDA
Accurately ripped (confidence 2) [26641D4E] (AR v1)
Copy OK
Track 4
Filename D:\zzz\04 - Themes for America No.4.wav
Peak level 93.4 %
Extraction speed 8.3 X
Track quality 99.9 %
Test CRC 85BDB919
Copy CRC 85BDB919
Accurately ripped (confidence 2) [6DCDDFE6] (AR v1)
Copy OK
All tracks accurately ripped
No errors occurred
End of status report
==== Log checksum F3B968B2C856B0F0E61A850991F055B02733DC83C4D191BF0C54DE20B10B6A09 ====
 
Содержание индексной карты (.CUE)
REM GENRE Jazz
REM DATE 1988
REM DISCID 2E0D9304
REM COMMENT "ExactAudioCopy v1.0b3"
PERFORMER "Trevor Watts Moire Music"
TITLE "With One Voice"
FILE "01 - Themes for America No.1.wav" WAVE
TRACK 01 AUDIO
TITLE "Themes for America No.1"
PERFORMER "Trevor Watts Moire Music"
INDEX 01 00:00:00
FILE "02 - Need We Ever Say Goodbye.wav" WAVE
TRACK 02 AUDIO
TITLE "Need We Ever Say Goodbye"
PERFORMER "Trevor Watts Moire Music"
INDEX 01 00:00:00
FILE "03 - Themes for America No.2.wav" WAVE
TRACK 03 AUDIO
TITLE "Themes for America No.2"
PERFORMER "Trevor Watts Moire Music"
INDEX 01 00:00:00
FILE "04 - Themes for America No.4.wav" WAVE
TRACK 04 AUDIO
TITLE "Themes for America No.4"
PERFORMER "Trevor Watts Moire Music"
INDEX 01 00:00:00
 
Лог проверки качества
d:\>d:\aucdtect -d/-m0 d:\zzz\*.wav
auCDtect: CD records authenticity detector, version 0.8.2
Copyright (c) 2004 Oleg Berngardt. All rights reserved.
Copyright (c) 2004 Alexander Djourik. All rights reserved.
------------------------------------------------------------
Processing file: [01. Themes for America No.1.wav]
------------------------------------------------------------
This track looks like CDDA with probability 99%
------------------------------------------------------------
Processing file: [02. Need We Ever Say Goodbye.wav]
------------------------------------------------------------
This track looks like CDDA with probability 100%
------------------------------------------------------------
Processing file: [03. Themes for America No.2.wav]
------------------------------------------------------------
This track looks like CDDA with probability 100%
------------------------------------------------------------
Processing file: [04. Themes for America No.4.wav]
------------------------------------------------------------
This track looks like CDDA with probability 100%
------------------------------------------------------------
Final Conclusion:
------------------------------------------------------------
These tracks looks like CDDA with probability 100%
 
Состав
Alto Saxophone, Composed By, Producer, Liner Notes – Trevor Watts
Bass Guitar – Colin Gibson
Drums – Liam Genockey
Percussion [African] – Kofi Adu, Nana Tsiboe
Piano – Veryan Weston
Piano, Accordion – Richard Granville-Smith
Tenor Saxophone – Simon Pickard
Voice, Keyboards – Liane Carroll
Recorded live at the Rye Festival by Radio Sussex, 5th September 1988.
Any questions -> support@pro-jazz.com. По всем вопросам пишите -> support@pro-jazz.com
15:14
177
Нет комментариев. Ваш будет первым!