Вы используете незарегистрированную версию компонента "Вкладки"!

Поиск

(Free Jazz, Free Improvisation, FMR) Trevor Watts Amalgam - Mad - 1977, FLAC (tracks+.cue), lossless

(Free Jazz, Free Improvisation, FMR) Trevor Watts Amalgam - Mad - 1977, FLAC (tracks+.cue), lossless
Треклист:
Trevor Watts Amalgam / Mad
Жанр: Free Jazz, Free Improvisation, FMR
Страна-производитель диска: UK
Год издания: 2008
Издатель (лейбл): FMR Records
Номер по каталогу: FMRCD267-1008
Страна: UK
Аудиокодек: FLAC (*.flac)
Тип рипа: tracks+.cue
Битрейт аудио: lossless
Продолжительность: 46:42
Источник (релизер): свой фирменный диск
Наличие сканов в содержимом раздачи:
Треклист:
1 Wai-Ya Wai-Ya 9:19
2 Jive 11:55
3 Berlin Wall / Mad 24:00
 
Лог создания рипа
Exact Audio Copy V1.0 beta 3 from 29. August 2011
EAC extraction logfile from 21. June 2013, 23:01
Amalgam / Mad
Used drive : PIONEER DVD-RW DVR-115D Adapter: 0 ID: 0
Read mode : Secure
Utilize accurate stream : Yes
Defeat audio cache : Yes
Make use of C2 pointers : No
Read offset correction : 48
Overread into Lead-In and Lead-Out : No
Fill up missing offset samples with silence : Yes
Delete leading and trailing silent blocks : No
Null samples used in CRC calculations : Yes
Used interface : Installed external ASPI interface
Gap handling : Appended to previous track
Used output format : User Defined Encoder
Selected bitrate : 896 kBit/s
Quality : High
Add ID3 tag : No
Command line compressor : C:\Program Files\Exact Audio Copy\FLAC\FLAC.EXE
Additional command line options : -6 -V -T "ARTIST=%artist%" -T "TITLE=%title%" -T "ALBUM=%albumtitle%" -T "DATE=%year%" -T "TRACKNUMBER=%tracknr%" -T "GENRE=%genre%" -T "COMMENT=%comment%" -T "BAND=%albuminterpret%" -T "COMPOSER=%composer%" %haslyrics%--tag-from-file=LYRICS="%lyricsfile%"%haslyrics% -T "DISCNUMBER=%cdnumber%" -T "TOTALDISCS=%totalcds%" -T "TOTALTRACKS=%numtracks%" %hascover%--picture="%coverfile%"%hascover% %source% -o %dest%
TOC of the extracted CD
Track | Start | Length | Start sector | End sector
---------------------------------------------------------
1 | 0:00.00 | 10:29.43 | 0 | 47217
2 | 10:29.43 | 12:11.12 | 47218 | 102054
3 | 22:40.55 | 24:02.00 | 102055 | 210204
Track 1
Filename D:\zzz\01 - Wai-Ya Wai-Ya.wav
Pre-gap length 0:00:02.00
Peak level 100.0 %
Extraction speed 5.0 X
Track quality 100.0 %
Test CRC 1BD80813
Copy CRC 1BD80813
Track not present in AccurateRip database
Copy OK
Track 2
Filename D:\zzz\02 - Jive.wav
Pre-gap length 0:00:02.00
Peak level 98.8 %
Extraction speed 6.2 X
Track quality 100.0 %
Test CRC 615CB5DD
Copy CRC 615CB5DD
Cannot be verified as accurate (confidence 1) [342268B0], AccurateRip returned [71CED8DD] (AR v2)
Copy OK
Track 3
Filename D:\zzz\03 - Berlin Wall , Mad.wav
Pre-gap length 0:00:02.00
Peak level 100.0 %
Extraction speed 7.8 X
Track quality 100.0 %
Test CRC D4CA2C72
Copy CRC D4CA2C72
Track not present in AccurateRip database
Copy OK
1 track(s) could not be verified as accurate
2 track(s) not present in the AccurateRip database
No tracks could be verified as accurate
You may have a different pressing from the one(s) in the database
No errors occurred
End of status report
==== Log checksum 991C1B92AC5839D89494A0054B3DC9BB42CAC8FB4A7148510517BEF6FAB13089 ====
 
Содержание индексной карты (.CUE)
REM GENRE "Avant-Garde Jazz"
REM DATE 1977
REM DISCID 180AF203
REM COMMENT "ExactAudioCopy v1.0b3"
PERFORMER "Amalgam"
TITLE "Mad"
FILE "01 - Wai-Ya Wai-Ya.wav" WAVE
TRACK 01 AUDIO
TITLE "Wai-Ya Wai-Ya"
PERFORMER "Amalgam"
INDEX 01 00:00:00
TRACK 02 AUDIO
TITLE "Jive"
PERFORMER "Amalgam"
INDEX 00 10:27:43
FILE "02 - Jive.wav" WAVE
INDEX 01 00:00:00
TRACK 03 AUDIO
TITLE "Berlin Wall / Mad"
PERFORMER "Amalgam"
INDEX 00 12:09:12
FILE "03 - Berlin Wall , Mad.wav" WAVE
INDEX 01 00:00:00
 
Лог проверки качества
d:\>d:\aucdtect -d/-m0 d:\zzz\*.wav
auCDtect: CD records authenticity detector, version 0.8.2
Copyright (c) 2004 Oleg Berngardt. All rights reserved.
Copyright (c) 2004 Alexander Djourik. All rights reserved.
------------------------------------------------------------
Processing file: [01. Wai-Ya Wai-Ya.wav]
------------------------------------------------------------
This track looks like CDDA with probability 100%
------------------------------------------------------------
Processing file: [02. Jive.wav]
------------------------------------------------------------
This track looks like CDDA with probability 99%
------------------------------------------------------------
Processing file: [03. Berlin Wall - Mad.wav]
------------------------------------------------------------
This track looks like CDDA with probability 100%
------------------------------------------------------------
Final Conclusion:
------------------------------------------------------------
These tracks looks like CDDA with probability 100%
 
Состав
Bass – Colin McKenzie
Drums – Liam Genockey
Electric Piano – Willem Kuhne
Saxophone [Saxophones] – Trevor Watts
Recorded in 1977
Any questions -> support@pro-jazz.com. По всем вопросам пишите -> support@pro-jazz.com
15:14
168
Нет комментариев. Ваш будет первым!