Вы используете незарегистрированную версию компонента "Вкладки"!

Поиск

(Free Jazz, Free Improvisation, FMR) Rob Hall & Chick Lyall - Chronicles - 2013, FLAC (tracks+.cue), lossless

(Free Jazz, Free Improvisation, FMR) Rob Hall & Chick Lyall - Chronicles - 2013, FLAC (tracks+.cue), lossless
Треклист:
Rob Hall & Chick Lyall / Chronicles
Жанр: Free Jazz, Free Improvisation, FMR
Страна-производитель диска: UK
Год издания: 2013
Издатель (лейбл): FMR Records
Номер по каталогу: FMRCD352-0413
Страна: UK
Аудиокодек: FLAC (*.flac)
Тип рипа: tracks+.cue
Битрейт аудио: lossless
Продолжительность: 52:31
Источник (релизер): свой фирменный диск
Наличие сканов в содержимом раздачи:
Треклист:
1 Aftermath 0:56
2 Stateside 2:12
3 Ceremonial 3:13
4 Dictum 1:05
5 Glass Half Full 2:35
6 Augustine Of Hippo 2:06
['Three Miniatures' For Soprano Saxophone & Piano]
7 Preludium 1:39
8 Fughetta 1:32
9 Lenny's Jive (For Leonard Bernstein) 1:03
-
10 Almanac For A Mouse 2:37
11 Processional 2:44
12 Bridge Of Sighs 1:20
['Atina Suite' For Bass Clarinet & Piano]
13 Languido 2:58
14 Poco Inquieto 1:47
15 Sostenuto 1:56
16 Poco Animato 1:34
17 Di Spirito Pervaso 3:25
-
18 Hermetic Code 1:27
19 Celestial 2:10
20 Toccata 2:38
21 Glass Half Empty 2:41
22 Almanac For A Moose 2:47
23 Tryst 2:55
24 Convivium 2:59
 
Лог создания рипа
Exact Audio Copy V1.0 beta 3 from 29. August 2011
EAC extraction logfile from 20. August 2013, 21:11
Rob Hall & Chick Lyall / Chronicles
Used drive : PIONEER DVD-RW DVR-115D Adapter: 0 ID: 0
Read mode : Secure
Utilize accurate stream : Yes
Defeat audio cache : Yes
Make use of C2 pointers : No
Read offset correction : 48
Overread into Lead-In and Lead-Out : No
Fill up missing offset samples with silence : Yes
Delete leading and trailing silent blocks : No
Null samples used in CRC calculations : Yes
Used interface : Installed external ASPI interface
Gap handling : Appended to previous track
Used output format : User Defined Encoder
Selected bitrate : 896 kBit/s
Quality : High
Add ID3 tag : No
Command line compressor : C:\Program Files\Exact Audio Copy\FLAC\FLAC.EXE
Additional command line options : -6 -V -T "ARTIST=%artist%" -T "TITLE=%title%" -T "ALBUM=%albumtitle%" -T "DATE=%year%" -T "TRACKNUMBER=%tracknr%" -T "GENRE=%genre%" -T "COMMENT=%comment%" -T "BAND=%albuminterpret%" -T "COMPOSER=%composer%" %haslyrics%--tag-from-file=LYRICS="%lyricsfile%"%haslyrics% -T "DISCNUMBER=%cdnumber%" -T "TOTALDISCS=%totalcds%" -T "TOTALTRACKS=%numtracks%" %hascover%--picture="%coverfile%"%hascover% %source% -o %dest%
TOC of the extracted CD
Track | Start | Length | Start sector | End sector
---------------------------------------------------------
1 | 0:00.00 | 0:56.33 | 0 | 4232
2 | 0:56.33 | 2:12.55 | 4233 | 14187
3 | 3:09.13 | 3:13.30 | 14188 | 28692
4 | 6:22.43 | 1:05.63 | 28693 | 33630
5 | 7:28.31 | 2:35.34 | 33631 | 45289
6 | 10:03.65 | 2:06.46 | 45290 | 54785
7 | 12:10.36 | 1:39.67 | 54786 | 62277
8 | 13:50.28 | 1:32.26 | 62278 | 69203
9 | 15:22.54 | 1:03.25 | 69204 | 73953
10 | 16:26.04 | 2:37.29 | 73954 | 85757
11 | 19:03.33 | 2:44.34 | 85758 | 98091
12 | 21:47.67 | 1:20.06 | 98092 | 104097
13 | 23:07.73 | 2:58.43 | 104098 | 117490
14 | 26:06.41 | 1:47.21 | 117491 | 125536
15 | 27:53.62 | 1:56.36 | 125537 | 134272
16 | 29:50.23 | 1:34.64 | 134273 | 141386
17 | 31:25.12 | 3:25.21 | 141387 | 156782
18 | 34:50.33 | 1:27.29 | 156783 | 163336
19 | 36:17.62 | 2:10.45 | 163337 | 173131
20 | 38:28.32 | 2:38.42 | 173132 | 185023
21 | 41:06.74 | 2:41.04 | 185024 | 197102
22 | 43:48.03 | 2:47.69 | 197103 | 209696
23 | 46:35.72 | 2:55.28 | 209697 | 222849
24 | 49:31.25 | 2:59.57 | 222850 | 236331
Track 1
Filename D:\zzz\01 - Aftermath.wav
Pre-gap length 0:00:02.00
Peak level 100.0 %
Extraction speed 2.1 X
Track quality 99.8 %
Test CRC 322F2C8C
Copy CRC 322F2C8C
Track not present in AccurateRip database
Copy OK
Track 2
Filename D:\zzz\02 - Stateside.wav
Pre-gap length 0:00:00.33
Peak level 100.0 %
Extraction speed 4.0 X
Track quality 100.0 %
Test CRC C4325182
Copy CRC C4325182
Track not present in AccurateRip database
Copy OK
Track 3
Filename D:\zzz\03 - Ceremonial.wav
Pre-gap length 0:00:00.34
Peak level 100.0 %
Extraction speed 4.5 X
Track quality 100.0 %
Test CRC 8901D74D
Copy CRC 8901D74D
Track not present in AccurateRip database
Copy OK
Track 4
Filename D:\zzz\04 - Dictum.wav
Pre-gap length 0:00:00.28
Peak level 98.8 %
Extraction speed 3.7 X
Track quality 100.0 %
Test CRC 63BE1902
Copy CRC 63BE1902
Track not present in AccurateRip database
Copy OK
Track 5
Filename D:\zzz\05 - Glass Half Full.wav
Pre-gap length 0:00:01.04
Peak level 98.8 %
Extraction speed 4.7 X
Track quality 100.0 %
Test CRC 8E251DC7
Copy CRC 8E251DC7
Track not present in AccurateRip database
Copy OK
Track 6
Filename D:\zzz\06 - Augustine Of Hippo.wav
Pre-gap length 0:00:00.62
Peak level 98.8 %
Extraction speed 4.7 X
Track quality 100.0 %
Test CRC 9F062173
Copy CRC 9F062173
Track not present in AccurateRip database
Copy OK
Track 7
Filename D:\zzz\07 - Preludium.wav
Pre-gap length 0:00:01.74
Peak level 100.0 %
Extraction speed 4.6 X
Track quality 100.0 %
Test CRC A1599519
Copy CRC A1599519
Track not present in AccurateRip database
Copy OK
Track 8
Filename D:\zzz\08 - Fughetta.wav
Pre-gap length 0:00:00.02
Peak level 100.0 %
Extraction speed 4.6 X
Track quality 100.0 %
Test CRC 78502C44
Copy CRC 78502C44
Track not present in AccurateRip database
Copy OK
Track 9
Filename D:\zzz\09 - Lenny's Jive (For Leonard Bernstein).wav
Pre-gap length 0:00:00.06
Peak level 100.0 %
Extraction speed 4.2 X
Track quality 100.0 %
Test CRC B5D7CCB7
Copy CRC B5D7CCB7
Track not present in AccurateRip database
Copy OK
Track 10
Filename D:\zzz\10 - Almanac For A Mouse.wav
Pre-gap length 0:00:01.74
Peak level 98.8 %
Extraction speed 4.6 X
Track quality 99.9 %
Test CRC 93875BF9
Copy CRC 93875BF9
Track not present in AccurateRip database
Copy OK
Track 11
Filename D:\zzz\11 - Processional.wav
Pre-gap length 0:00:00.54
Peak level 100.0 %
Extraction speed 5.7 X
Track quality 100.0 %
Test CRC 5035DE36
Copy CRC 5035DE36
Track not present in AccurateRip database
Copy OK
Track 12
Filename D:\zzz\12 - Bridge Of Sighs.wav
Pre-gap length 0:00:01.67
Peak level 98.8 %
Extraction speed 4.9 X
Track quality 100.0 %
Test CRC 747FAA45
Copy CRC 747FAA45
Track not present in AccurateRip database
Copy OK
Track 13
Filename D:\zzz\13 - Languido.wav
Pre-gap length 0:00:01.74
Peak level 100.0 %
Extraction speed 6.1 X
Track quality 100.0 %
Test CRC E6008F48
Copy CRC E6008F48
Track not present in AccurateRip database
Copy OK
Track 14
Filename D:\zzz\14 - Poco Inquieto.wav
Pre-gap length 0:00:01.74
Peak level 98.8 %
Extraction speed 5.6 X
Track quality 100.0 %
Test CRC 358D667B
Copy CRC 358D667B
Track not present in AccurateRip database
Copy OK
Track 15
Filename D:\zzz\15 - Sostenuto.wav
Pre-gap length 0:00:00.06
Peak level 98.8 %
Extraction speed 5.8 X
Track quality 100.0 %
Test CRC F616BCBA
Copy CRC F616BCBA
Track not present in AccurateRip database
Copy OK
Track 16
Filename D:\zzz\16 - Poco Animato.wav
Pre-gap length 0:00:00.06
Peak level 100.0 %
Extraction speed 5.6 X
Track quality 100.0 %
Test CRC E215EB20
Copy CRC E215EB20
Track not present in AccurateRip database
Copy OK
Track 17
Filename D:\zzz\17 - Di Spirito Pervaso.wav
Pre-gap length 0:00:00.03
Peak level 98.8 %
Extraction speed 6.8 X
Track quality 100.0 %
Test CRC 04C9EE89
Copy CRC 04C9EE89
Track not present in AccurateRip database
Copy OK
Track 18
Filename D:\zzz\18 - Hermetic Code.wav
Pre-gap length 0:00:01.74
Peak level 98.8 %
Extraction speed 5.7 X
Track quality 100.0 %
Test CRC C7472790
Copy CRC C7472790
Track not present in AccurateRip database
Copy OK
Track 19
Filename D:\zzz\19 - Celestial.wav
Peak level 98.8 %
Extraction speed 6.4 X
Track quality 100.0 %
Test CRC 6535CB78
Copy CRC 6535CB78
Track not present in AccurateRip database
Copy OK
Track 20
Filename D:\zzz\20 - Toccata.wav
Pre-gap length 0:00:00.17
Peak level 100.0 %
Extraction speed 6.9 X
Track quality 100.0 %
Test CRC ED26BB55
Copy CRC ED26BB55
Track not present in AccurateRip database
Copy OK
Track 21
Filename D:\zzz\21 - Glass Half Empty.wav
Pre-gap length 0:00:00.03
Peak level 100.0 %
Extraction speed 7.0 X
Track quality 100.0 %
Test CRC 0611C163
Copy CRC 0611C163
Track not present in AccurateRip database
Copy OK
Track 22
Filename D:\zzz\22 - Almanac For A Moose.wav
Pre-gap length 0:00:00.68
Peak level 100.0 %
Extraction speed 7.1 X
Track quality 100.0 %
Test CRC 80F7095A
Copy CRC 80F7095A
Track not present in AccurateRip database
Copy OK
Track 23
Filename D:\zzz\23 - Tryst.wav
Pre-gap length 0:00:01.74
Peak level 100.0 %
Extraction speed 7.3 X
Track quality 100.0 %
Test CRC 323995D9
Copy CRC 323995D9
Track not present in AccurateRip database
Copy OK
Track 24
Filename D:\zzz\24 - Convivium.wav
Pre-gap length 0:00:00.11
Peak level 100.0 %
Extraction speed 7.5 X
Track quality 100.0 %
Test CRC 6B0A5E42
Copy CRC 6B0A5E42
Track not present in AccurateRip database
Copy OK
None of the tracks are present in the AccurateRip database
No errors occurred
End of status report
==== Log checksum 0387BDB3139345ECBBE72F90F799D26E397693490AC25EF6846DF0A2BBD1F7CA ====
 
Содержание индексной карты (.CUE)
REM GENRE "Free Improvisation"
REM DATE 2013
REM DISCID 710C4F18
REM COMMENT "ExactAudioCopy v1.0b3"
PERFORMER "Rob Hall & Chick Lyall"
TITLE "Chronicles"
FILE "01 - Aftermath.wav" WAVE
TRACK 01 AUDIO
TITLE "Aftermath"
PERFORMER "Rob Hall & Chick Lyall"
INDEX 01 00:00:00
TRACK 02 AUDIO
TITLE "Stateside"
PERFORMER "Rob Hall & Chick Lyall"
INDEX 00 00:56:00
FILE "02 - Stateside.wav" WAVE
INDEX 01 00:00:00
TRACK 03 AUDIO
TITLE "Ceremonial"
PERFORMER "Rob Hall & Chick Lyall"
INDEX 00 02:12:21
FILE "03 - Ceremonial.wav" WAVE
INDEX 01 00:00:00
TRACK 04 AUDIO
TITLE "Dictum"
PERFORMER "Rob Hall & Chick Lyall"
INDEX 00 03:13:02
FILE "04 - Dictum.wav" WAVE
INDEX 01 00:00:00
TRACK 05 AUDIO
TITLE "Glass Half Full"
PERFORMER "Rob Hall & Chick Lyall"
INDEX 00 01:04:59
FILE "05 - Glass Half Full.wav" WAVE
INDEX 01 00:00:00
TRACK 06 AUDIO
TITLE "Augustine Of Hippo"
PERFORMER "Rob Hall & Chick Lyall"
INDEX 00 02:34:47
FILE "06 - Augustine Of Hippo.wav" WAVE
INDEX 01 00:00:00
TRACK 07 AUDIO
TITLE "Preludium"
PERFORMER "Rob Hall & Chick Lyall"
INDEX 00 02:04:47
FILE "07 - Preludium.wav" WAVE
INDEX 01 00:00:00
TRACK 08 AUDIO
TITLE "Fughetta"
PERFORMER "Rob Hall & Chick Lyall"
INDEX 00 01:39:65
FILE "08 - Fughetta.wav" WAVE
INDEX 01 00:00:00
TRACK 09 AUDIO
TITLE "Lenny's Jive (For Leonard Bernstein)"
PERFORMER "Rob Hall & Chick Lyall"
INDEX 00 01:32:20
FILE "09 - Lenny's Jive (For Leonard Bernstein).wav" WAVE
INDEX 01 00:00:00
TRACK 10 AUDIO
TITLE "Almanac For A Mouse"
PERFORMER "Rob Hall & Chick Lyall"
INDEX 00 01:01:26
FILE "10 - Almanac For A Mouse.wav" WAVE
INDEX 01 00:00:00
TRACK 11 AUDIO
TITLE "Processional"
PERFORMER "Rob Hall & Chick Lyall"
INDEX 00 02:36:50
FILE "11 - Processional.wav" WAVE
INDEX 01 00:00:00
TRACK 12 AUDIO
TITLE "Bridge Of Sighs"
PERFORMER "Rob Hall & Chick Lyall"
INDEX 00 02:42:42
FILE "12 - Bridge Of Sighs.wav" WAVE
INDEX 01 00:00:00
TRACK 13 AUDIO
TITLE "Languido"
PERFORMER "Rob Hall & Chick Lyall"
INDEX 00 01:18:07
FILE "13 - Languido.wav" WAVE
INDEX 01 00:00:00
TRACK 14 AUDIO
TITLE "Poco Inquieto"
PERFORMER "Rob Hall & Chick Lyall"
INDEX 00 02:56:44
FILE "14 - Poco Inquieto.wav" WAVE
INDEX 01 00:00:00
TRACK 15 AUDIO
TITLE "Sostenuto"
PERFORMER "Rob Hall & Chick Lyall"
INDEX 00 01:47:15
FILE "15 - Sostenuto.wav" WAVE
INDEX 01 00:00:00
TRACK 16 AUDIO
TITLE "Poco Animato"
PERFORMER "Rob Hall & Chick Lyall"
INDEX 00 01:56:30
FILE "16 - Poco Animato.wav" WAVE
INDEX 01 00:00:00
TRACK 17 AUDIO
TITLE "Di Spirito Pervaso"
PERFORMER "Rob Hall & Chick Lyall"
INDEX 00 01:34:61
FILE "17 - Di Spirito Pervaso.wav" WAVE
INDEX 01 00:00:00
TRACK 18 AUDIO
TITLE "Hermetic Code"
PERFORMER "Rob Hall & Chick Lyall"
INDEX 00 03:23:22
FILE "18 - Hermetic Code.wav" WAVE
INDEX 01 00:00:00
FILE "19 - Celestial.wav" WAVE
TRACK 19 AUDIO
TITLE "Celestial"
PERFORMER "Rob Hall & Chick Lyall"
INDEX 01 00:00:00
TRACK 20 AUDIO
TITLE "Toccata"
PERFORMER "Rob Hall & Chick Lyall"
INDEX 00 02:10:28
FILE "20 - Toccata.wav" WAVE
INDEX 01 00:00:00
TRACK 21 AUDIO
TITLE "Glass Half Empty"
PERFORMER "Rob Hall & Chick Lyall"
INDEX 00 02:38:39
FILE "21 - Glass Half Empty.wav" WAVE
INDEX 01 00:00:00
TRACK 22 AUDIO
TITLE "Almanac For A Moose"
PERFORMER "Rob Hall & Chick Lyall"
INDEX 00 02:40:11
FILE "22 - Almanac For A Moose.wav" WAVE
INDEX 01 00:00:00
TRACK 23 AUDIO
TITLE "Tryst"
PERFORMER "Rob Hall & Chick Lyall"
INDEX 00 02:45:70
FILE "23 - Tryst.wav" WAVE
INDEX 01 00:00:00
TRACK 24 AUDIO
TITLE "Convivium"
PERFORMER "Rob Hall & Chick Lyall"
INDEX 00 02:55:17
FILE "24 - Convivium.wav" WAVE
INDEX 01 00:00:00
 
Лог проверки качества
d:\>d:\aucdtect -d/-m0 d:\zzz\*.wav
auCDtect: CD records authenticity detector, version 0.8.2
Copyright (c) 2004 Oleg Berngardt. All rights reserved.
Copyright (c) 2004 Alexander Djourik. All rights reserved.
------------------------------------------------------------
Processing file: [01. Aftermath.wav]
------------------------------------------------------------
This track looks like CDDA with probability 100%
------------------------------------------------------------
Processing file: [02. Stateside.wav]
------------------------------------------------------------
This track looks like CDDA with probability 100%
------------------------------------------------------------
Processing file: [03. Ceremonial.wav]
------------------------------------------------------------
This track looks like CDDA with probability 100%
------------------------------------------------------------
Processing file: [04. Dictum.wav]
------------------------------------------------------------
This track looks like CDDA with probability 100%
------------------------------------------------------------
Processing file: [05. Glass Half Full.wav]
------------------------------------------------------------
This track looks like CDDA with probability 100%
------------------------------------------------------------
Processing file: [06. Augustine Of Hippo.wav]
------------------------------------------------------------
This track looks like CDDA with probability 100%
------------------------------------------------------------
Processing file: [07. Preludium.wav]
------------------------------------------------------------
This track looks like CDDA with probability 100%
------------------------------------------------------------
Processing file: [08. Fughetta.wav]
------------------------------------------------------------
This track looks like CDDA with probability 100%
------------------------------------------------------------
Processing file: [09. Lenny's Jive (For Leonard Bernstein).wav]
------------------------------------------------------------
This track looks like CDDA with probability 100%
------------------------------------------------------------
Processing file: [10. Almanac For A Mouse.wav]
------------------------------------------------------------
This track looks like CDDA with probability 100%
------------------------------------------------------------
Processing file: [11. Processional.wav]
------------------------------------------------------------
This track looks like CDDA with probability 100%
------------------------------------------------------------
Processing file: [12. Bridge Of Sighs.wav]
------------------------------------------------------------
This track looks like CDDA with probability 100%
------------------------------------------------------------
Processing file: [13. Languido.wav]
------------------------------------------------------------
This track looks like CDDA with probability 100%
------------------------------------------------------------
Processing file: [14. Poco Inquieto.wav]
------------------------------------------------------------
This track looks like CDDA with probability 100%
------------------------------------------------------------
Processing file: [15. Sostenuto.wav]
------------------------------------------------------------
This track looks like CDDA with probability 100%
------------------------------------------------------------
Processing file: [16. Poco Animato.wav]
------------------------------------------------------------
This track looks like CDDA with probability 99%
------------------------------------------------------------
Processing file: [17. Di Spirito Pervaso.wav]
------------------------------------------------------------
This track looks like CDDA with probability 100%
------------------------------------------------------------
Processing file: [18. Hermetic Code.wav]
------------------------------------------------------------
This track looks like CDDA with probability 100%
------------------------------------------------------------
Processing file: [19. Celestial.wav]
------------------------------------------------------------
This track looks like CDDA with probability 100%
------------------------------------------------------------
Processing file: [20. Toccata.wav]
------------------------------------------------------------
This track looks like CDDA with probability 100%
------------------------------------------------------------
Processing file: [21. Glass Half Empty.wav]
------------------------------------------------------------
This track looks like CDDA with probability 100%
------------------------------------------------------------
Processing file: [22. Almanac For A Moose.wav]
------------------------------------------------------------
This track looks like CDDA with probability 100%
------------------------------------------------------------
Processing file: [23. Tryst.wav]
------------------------------------------------------------
This track looks like CDDA with probability 100%
------------------------------------------------------------
Processing file: [24. Convivium.wav]
------------------------------------------------------------
This track looks like CDDA with probability 99%
------------------------------------------------------------
Final Conclusion:
------------------------------------------------------------
These tracks looks like CDDA with probability 100%
 
Состав
Piano, Piano [Prepared Piano], Synthesizer [Synthesizers], Producer – Chick Lyall
Sopranino Saxophone, Soprano Saxophone, Alto Saxophone, Clarinet, Bass Clarinet, Producer – Rob Hall
Recorded on location, East Lothian, Scotland
Any questions -> support@pro-jazz.com. По всем вопросам пишите -> support@pro-jazz.com
17:21
125
Нет комментариев. Ваш будет первым!