Вы используете незарегистрированную версию компонента "Вкладки"!

Поиск

(Free Jazz, Free Improvisation, FMR) Paul Dunmall, Mark Hanslip, Philip Gibbs, Ed Ricard - Weeping Idols - 2013, FLAC (tracks+.cue), lossless

(Free Jazz, Free Improvisation, FMR) Paul Dunmall, Mark Hanslip, Philip Gibbs, Ed Ricard - Weeping Idols - 2013, FLAC (tracks+.cue), lossless
Треклист:
Paul Dunmall, Mark Hanslip, Philip Gibbs, Ed Ricard / Weeping Idols
Жанр: Free Jazz, Free Improvisation, FMR
Страна-производитель диска: UK
Год издания: 2013
Издатель (лейбл): FMR Records
Номер по каталогу: FMRCD356-0513
Страна: UK
Аудиокодек: FLAC (*.flac)
Тип рипа: tracks+.cue
Битрейт аудио: lossless
Продолжительность: 47:42
Источник (релизер): свой фирменный диск
Наличие сканов в содержимом раздачи:
Треклист:
1 4 Souls, 8 Eyes 20:47
2 Bhutan 11:57
3 Better Than Words 10:31
4 Weeping Idols 4:18
 
Лог создания рипа
Exact Audio Copy V1.0 beta 3 from 29. August 2011
EAC extraction logfile from 21. August 2013, 21:01
Paul Dunmall, Mark Hanslip, Philip Gibbs, Ed Ricard / Weeping Idols
Used drive : PIONEER DVD-RW DVR-115D Adapter: 0 ID: 0
Read mode : Secure
Utilize accurate stream : Yes
Defeat audio cache : Yes
Make use of C2 pointers : No
Read offset correction : 48
Overread into Lead-In and Lead-Out : No
Fill up missing offset samples with silence : Yes
Delete leading and trailing silent blocks : No
Null samples used in CRC calculations : Yes
Used interface : Installed external ASPI interface
Gap handling : Appended to previous track
Used output format : User Defined Encoder
Selected bitrate : 896 kBit/s
Quality : High
Add ID3 tag : No
Command line compressor : C:\Program Files\Exact Audio Copy\FLAC\FLAC.EXE
Additional command line options : -6 -V -T "ARTIST=%artist%" -T "TITLE=%title%" -T "ALBUM=%albumtitle%" -T "DATE=%year%" -T "TRACKNUMBER=%tracknr%" -T "GENRE=%genre%" -T "COMMENT=%comment%" -T "BAND=%albuminterpret%" -T "COMPOSER=%composer%" %haslyrics%--tag-from-file=LYRICS="%lyricsfile%"%haslyrics% -T "DISCNUMBER=%cdnumber%" -T "TOTALDISCS=%totalcds%" -T "TOTALTRACKS=%numtracks%" %hascover%--picture="%coverfile%"%hascover% %source% -o %dest%
TOC of the extracted CD
Track | Start | Length | Start sector | End sector
---------------------------------------------------------
1 | 0:00.00 | 20:48.69 | 0 | 93668
2 | 20:48.69 | 12:00.30 | 93669 | 147698
3 | 32:49.24 | 10:33.62 | 147699 | 195235
4 | 43:23.11 | 4:18.72 | 195236 | 214657
Track 1
Filename D:\zzz\01 - 4 Souls, 8 Eyes.wav
Pre-gap length 0:00:02.00
Peak level 98.7 %
Extraction speed 6.0 X
Track quality 100.0 %
Test CRC 66046472
Copy CRC 66046472
Track not present in AccurateRip database
Copy OK
Track 2
Filename D:\zzz\02 - Bhutan.wav
Peak level 98.7 %
Extraction speed 7.1 X
Track quality 99.9 %
Test CRC 01ED86F0
Copy CRC 01ED86F0
Track not present in AccurateRip database
Copy OK
Track 3
Filename D:\zzz\03 - Better Than Words.wav
Peak level 98.7 %
Extraction speed 8.1 X
Track quality 100.0 %
Test CRC C2813D91
Copy CRC C2813D91
Track not present in AccurateRip database
Copy OK
Track 4
Filename D:\zzz\04 - Weeping Idols.wav
Peak level 98.7 %
Extraction speed 7.1 X
Track quality 99.9 %
Test CRC 3B0AB98B
Copy CRC 3B0AB98B
Track not present in AccurateRip database
Copy OK
None of the tracks are present in the AccurateRip database
No errors occurred
End of status report
==== Log checksum 26B0E6EE0A6A35E4CA34CD57BBE8DCEF65F54C2FD7D93BA31B5FEF17512A8A1A ====
 
Содержание индексной карты (.CUE)
REM GENRE "Free Improvisation"
REM DATE 2013
REM DISCID 290B2E04
REM COMMENT "ExactAudioCopy v1.0b3"
PERFORMER "Paul Dunmall, Mark Hanslip, Philip Gibbs, Ed Ricard"
TITLE "Weeping Idols"
FILE "01 - 4 Souls, 8 Eyes.wav" WAVE
TRACK 01 AUDIO
TITLE "4 Souls, 8 Eyes"
PERFORMER "Paul Dunmall, Mark Hanslip, Philip Gibbs, Ed Ricard"
INDEX 01 00:00:00
FILE "02 - Bhutan.wav" WAVE
TRACK 02 AUDIO
TITLE "Bhutan"
PERFORMER "Paul Dunmall, Mark Hanslip, Philip Gibbs, Ed Ricard"
INDEX 01 00:00:00
FILE "03 - Better Than Words.wav" WAVE
TRACK 03 AUDIO
TITLE "Better Than Words"
PERFORMER "Paul Dunmall, Mark Hanslip, Philip Gibbs, Ed Ricard"
INDEX 01 00:00:00
FILE "04 - Weeping Idols.wav" WAVE
TRACK 04 AUDIO
TITLE "Weeping Idols"
PERFORMER "Paul Dunmall, Mark Hanslip, Philip Gibbs, Ed Ricard"
INDEX 01 00:00:00
 
Лог проверки качества
d:\>d:\aucdtect -d/-m0 d:\zzz\*.wav
auCDtect: CD records authenticity detector, version 0.8.2
Copyright (c) 2004 Oleg Berngardt. All rights reserved.
Copyright (c) 2004 Alexander Djourik. All rights reserved.
------------------------------------------------------------
Processing file: [01. 4 Souls, 8 Eyes.wav]
------------------------------------------------------------
This track looks like CDDA with probability 100%
------------------------------------------------------------
Processing file: [02. Bhutan.wav]
------------------------------------------------------------
This track looks like CDDA with probability 100%
------------------------------------------------------------
Processing file: [03. Better Than Words.wav]
------------------------------------------------------------
This track looks like CDDA with probability 100%
------------------------------------------------------------
Processing file: [04. Weeping Idols.wav]
------------------------------------------------------------
This track looks like CDDA with probability 100%
------------------------------------------------------------
Final Conclusion:
------------------------------------------------------------
These tracks looks like CDDA with probability 100%
 
Состав
Guitar – Ed Ricard, Philip Gibbs
Tenor Saxophone – Mark Hanslip, Paul Dunmall
Recorded J&J Studios, Bristol, 2012
Any questions -> support@pro-jazz.com. По всем вопросам пишите -> support@pro-jazz.com
17:22
142
Нет комментариев. Ваш будет первым!