Вы используете незарегистрированную версию компонента "Вкладки"!

Поиск

(Free Jazz, Free Improvisation, FMR) Mark O'Leary, Dylan Van Der Schyff, Wayne Horvitz - Flux - 2007, FLAC (tracks+.cue), lossless

(Free Jazz, Free Improvisation, FMR) Mark O'Leary, Dylan Van Der Schyff, Wayne Horvitz - Flux - 2007, FLAC (tracks+.cue), lossless
Треклист:
Mark O'Leary, Dylan Van Der Schyff, Wayne Horvitz / Flux
Жанр: Free Jazz, Free Improvisation, FMR
Страна-производитель диска: UK
Год издания: 2007
Издатель (лейбл): FMR Records
Номер по каталогу: FMRCD238-0607
Страна: Ireland, US
Аудиокодек: FLAC (*.flac)
Тип рипа: tracks+.cue
Битрейт аудио: lossless
Продолжительность: 65:54
Источник (релизер): свой фирменный диск
Наличие сканов в содержимом раздачи:
Треклист:
1 Entrance 4:46
2 Be Careful What You Wish For 3:13
3 Vacant 4:19
4 Contextual 4:30
5 Vadalfjol 4:44
6 Beyond The Abyss 2:18
7 Verdant 4:02
8 Flux 4:48
9 Evolution 6:19
10 Cantus 2:26
11 If You Ask Me 4:55
12 New England Chronicles 5:24
13 Pensive 4:41
14 Other Room 5:27
15 Rubikon 4:05
 
Лог создания рипа
Exact Audio Copy V1.0 beta 3 from 29. August 2011
EAC extraction logfile from 27. July 2013, 20:30
Mark O'Leary, Dylan Van Der Schyff, Wayne Horvitz / Flux
Used drive : PIONEER DVD-RW DVR-115D Adapter: 0 ID: 0
Read mode : Secure
Utilize accurate stream : Yes
Defeat audio cache : Yes
Make use of C2 pointers : No
Read offset correction : 48
Overread into Lead-In and Lead-Out : No
Fill up missing offset samples with silence : Yes
Delete leading and trailing silent blocks : No
Null samples used in CRC calculations : Yes
Used interface : Installed external ASPI interface
Gap handling : Appended to previous track
Used output format : User Defined Encoder
Selected bitrate : 896 kBit/s
Quality : High
Add ID3 tag : No
Command line compressor : C:\Program Files\Exact Audio Copy\FLAC\FLAC.EXE
Additional command line options : -6 -V -T "ARTIST=%artist%" -T "TITLE=%title%" -T "ALBUM=%albumtitle%" -T "DATE=%year%" -T "TRACKNUMBER=%tracknr%" -T "GENRE=%genre%" -T "COMMENT=%comment%" -T "BAND=%albuminterpret%" -T "COMPOSER=%composer%" %haslyrics%--tag-from-file=LYRICS="%lyricsfile%"%haslyrics% -T "DISCNUMBER=%cdnumber%" -T "TOTALDISCS=%totalcds%" -T "TOTALTRACKS=%numtracks%" %hascover%--picture="%coverfile%"%hascover% %source% -o %dest%
TOC of the extracted CD
Track | Start | Length | Start sector | End sector
---------------------------------------------------------
1 | 0:00.00 | 4:45.40 | 0 | 21414
2 | 4:45.40 | 3:12.42 | 21415 | 35856
3 | 7:58.07 | 4:19.14 | 35857 | 55295
4 | 12:17.21 | 4:29.68 | 55296 | 75538
5 | 16:47.14 | 4:43.51 | 75539 | 96814
6 | 21:30.65 | 2:17.49 | 96815 | 107138
7 | 23:48.39 | 4:01.39 | 107139 | 125252
8 | 27:50.03 | 4:48.20 | 125253 | 146872
9 | 32:38.23 | 6:18.40 | 146873 | 175262
10 | 38:56.63 | 2:26.20 | 175263 | 186232
11 | 41:23.08 | 4:54.50 | 186233 | 208332
12 | 46:17.58 | 5:23.40 | 208333 | 232597
13 | 51:41.23 | 4:40.40 | 232598 | 253637
14 | 56:21.63 | 5:27.22 | 253638 | 278184
15 | 61:49.10 | 4:05.19 | 278185 | 296578
Track 1
Filename D:\zzz\01 - Entrance.wav
Pre-gap length 0:00:02.00
Peak level 100.0 %
Extraction speed 4.0 X
Track quality 99.9 %
Test CRC 7027E351
Copy CRC 7027E351
Track not present in AccurateRip database
Copy OK
Track 2
Filename D:\zzz\02 - Be Careful What You Wish For.wav
Pre-gap length 0:00:02.00
Peak level 100.0 %
Extraction speed 4.0 X
Track quality 99.9 %
Test CRC 485AB7AC
Copy CRC 485AB7AC
Track not present in AccurateRip database
Copy OK
Track 3
Filename D:\zzz\03 - Vacant.wav
Pre-gap length 0:00:02.00
Peak level 95.2 %
Extraction speed 5.1 X
Track quality 100.0 %
Test CRC F0A28E67
Copy CRC F0A28E67
Track not present in AccurateRip database
Copy OK
Track 4
Filename D:\zzz\04 - Contextual.wav
Pre-gap length 0:00:02.00
Peak level 100.0 %
Extraction speed 5.0 X
Track quality 99.9 %
Test CRC 5A6A39BA
Copy CRC 5A6A39BA
Track not present in AccurateRip database
Copy OK
Track 5
Filename D:\zzz\05 - Vadalfjol.wav
Pre-gap length 0:00:02.00
Peak level 100.0 %
Extraction speed 5.9 X
Track quality 100.0 %
Test CRC 24620859
Copy CRC 24620859
Track not present in AccurateRip database
Copy OK
Track 6
Filename D:\zzz\06 - Beyond The Abyss.wav
Pre-gap length 0:00:02.00
Peak level 100.0 %
Extraction speed 5.5 X
Track quality 100.0 %
Test CRC 8224D371
Copy CRC 8224D371
Track not present in AccurateRip database
Copy OK
Track 7
Filename D:\zzz\07 - Verdant.wav
Pre-gap length 0:00:02.00
Peak level 100.0 %
Extraction speed 6.3 X
Track quality 100.0 %
Test CRC 6D2D6E97
Copy CRC 6D2D6E97
Track not present in AccurateRip database
Copy OK
Track 8
Filename D:\zzz\08 - Flux.wav
Pre-gap length 0:00:02.00
Peak level 100.0 %
Extraction speed 6.7 X
Track quality 100.0 %
Test CRC 1E5E6320
Copy CRC 1E5E6320
Track not present in AccurateRip database
Copy OK
Track 9
Filename D:\zzz\09 - Evolution.wav
Pre-gap length 0:00:02.00
Peak level 100.0 %
Extraction speed 7.2 X
Track quality 100.0 %
Test CRC DB3CE37E
Copy CRC DB3CE37E
Track not present in AccurateRip database
Copy OK
Track 10
Filename D:\zzz\10 - Cantus.wav
Pre-gap length 0:00:02.00
Peak level 100.0 %
Extraction speed 6.6 X
Track quality 100.0 %
Test CRC DDCF5BFE
Copy CRC DDCF5BFE
Track not present in AccurateRip database
Copy OK
Track 11
Filename D:\zzz\11 - If You Ask Me.wav
Pre-gap length 0:00:02.00
Peak level 100.0 %
Extraction speed 7.5 X
Track quality 100.0 %
Test CRC 83E3924D
Copy CRC 83E3924D
Track not present in AccurateRip database
Copy OK
Track 12
Filename D:\zzz\12 - New England Chronicles.wav
Pre-gap length 0:00:02.00
Peak level 100.0 %
Extraction speed 7.9 X
Track quality 100.0 %
Test CRC 6DF6EB79
Copy CRC 6DF6EB79
Track not present in AccurateRip database
Copy OK
Track 13
Filename D:\zzz\13 - Pensive.wav
Pre-gap length 0:00:02.00
Peak level 100.0 %
Extraction speed 7.2 X
Track quality 99.9 %
Test CRC 6F5D0128
Copy CRC 6F5D0128
Track not present in AccurateRip database
Copy OK
Track 14
Filename D:\zzz\14 - Other Room.wav
Pre-gap length 0:00:02.00
Peak level 100.0 %
Extraction speed 5.3 X
Track quality 99.8 %
Test CRC 42FED389
Copy CRC 42FED389
Track not present in AccurateRip database
Copy OK
Track 15
Filename D:\zzz\15 - Rubikon.wav
Pre-gap length 0:00:02.00
Peak level 100.0 %
Extraction speed 8.4 X
Track quality 100.0 %
Test CRC C742C7C4
Copy CRC C742C7C4
Track not present in AccurateRip database
Copy OK
None of the tracks are present in the AccurateRip database
No errors occurred
End of status report
==== Log checksum 1802BE994EA34D07ECA192CEACA9856DE84D0436696D91BFAEA426B274F34206 ====
 
Содержание индексной карты (.CUE)
REM GENRE "Contemporary Jazz"
REM DATE 2007
REM DISCID D20F720F
REM COMMENT "ExactAudioCopy v1.0b3"
PERFORMER "Mark O'Leary, Dylan Van Der Schyff, Wayne Horvitz"
TITLE "Flux"
FILE "01 - Entrance.wav" WAVE
TRACK 01 AUDIO
TITLE "Entrance"
PERFORMER "Mark O'Leary, Dylan Van Der Schyff, Wayne Horvitz"
INDEX 01 00:00:00
TRACK 02 AUDIO
TITLE "Be Careful What You Wish For"
PERFORMER "Mark O'Leary, Dylan Van Der Schyff, Wayne Horvitz"
INDEX 00 04:43:40
FILE "02 - Be Careful What You Wish For.wav" WAVE
INDEX 01 00:00:00
TRACK 03 AUDIO
TITLE "Vacant"
PERFORMER "Mark O'Leary, Dylan Van Der Schyff, Wayne Horvitz"
INDEX 00 03:10:42
FILE "03 - Vacant.wav" WAVE
INDEX 01 00:00:00
TRACK 04 AUDIO
TITLE "Contextual"
PERFORMER "Mark O'Leary, Dylan Van Der Schyff, Wayne Horvitz"
INDEX 00 04:17:14
FILE "04 - Contextual.wav" WAVE
INDEX 01 00:00:00
TRACK 05 AUDIO
TITLE "Vadalfjol"
PERFORMER "Mark O'Leary, Dylan Van Der Schyff, Wayne Horvitz"
INDEX 00 04:27:68
FILE "05 - Vadalfjol.wav" WAVE
INDEX 01 00:00:00
TRACK 06 AUDIO
TITLE "Beyond The Abyss"
PERFORMER "Mark O'Leary, Dylan Van Der Schyff, Wayne Horvitz"
INDEX 00 04:41:51
FILE "06 - Beyond The Abyss.wav" WAVE
INDEX 01 00:00:00
TRACK 07 AUDIO
TITLE "Verdant"
PERFORMER "Mark O'Leary, Dylan Van Der Schyff, Wayne Horvitz"
INDEX 00 02:15:49
FILE "07 - Verdant.wav" WAVE
INDEX 01 00:00:00
TRACK 08 AUDIO
TITLE "Flux"
PERFORMER "Mark O'Leary, Dylan Van Der Schyff, Wayne Horvitz"
INDEX 00 03:59:39
FILE "08 - Flux.wav" WAVE
INDEX 01 00:00:00
TRACK 09 AUDIO
TITLE "Evolution"
PERFORMER "Mark O'Leary, Dylan Van Der Schyff, Wayne Horvitz"
INDEX 00 04:46:20
FILE "09 - Evolution.wav" WAVE
INDEX 01 00:00:00
TRACK 10 AUDIO
TITLE "Cantus"
PERFORMER "Mark O'Leary, Dylan Van Der Schyff, Wayne Horvitz"
INDEX 00 06:16:40
FILE "10 - Cantus.wav" WAVE
INDEX 01 00:00:00
TRACK 11 AUDIO
TITLE "If You Ask Me"
PERFORMER "Mark O'Leary, Dylan Van Der Schyff, Wayne Horvitz"
INDEX 00 02:24:20
FILE "11 - If You Ask Me.wav" WAVE
INDEX 01 00:00:00
TRACK 12 AUDIO
TITLE "New England Chronicles"
PERFORMER "Mark O'Leary, Dylan Van Der Schyff, Wayne Horvitz"
INDEX 00 04:52:50
FILE "12 - New England Chronicles.wav" WAVE
INDEX 01 00:00:00
TRACK 13 AUDIO
TITLE "Pensive"
PERFORMER "Mark O'Leary, Dylan Van Der Schyff, Wayne Horvitz"
INDEX 00 05:21:40
FILE "13 - Pensive.wav" WAVE
INDEX 01 00:00:00
TRACK 14 AUDIO
TITLE "Other Room"
PERFORMER "Mark O'Leary, Dylan Van Der Schyff, Wayne Horvitz"
INDEX 00 04:38:40
FILE "14 - Other Room.wav" WAVE
INDEX 01 00:00:00
TRACK 15 AUDIO
TITLE "Rubikon"
PERFORMER "Mark O'Leary, Dylan Van Der Schyff, Wayne Horvitz"
INDEX 00 05:25:22
FILE "15 - Rubikon.wav" WAVE
INDEX 01 00:00:00
 
Лог проверки качества
d:\>d:\aucdtect -d/-m0 d:\zzz\*.wav
auCDtect: CD records authenticity detector, version 0.8.2
Copyright (c) 2004 Oleg Berngardt. All rights reserved.
Copyright (c) 2004 Alexander Djourik. All rights reserved.
------------------------------------------------------------
Processing file: [01. Entrance.wav]
------------------------------------------------------------
This track looks like MPEG with probability 85%
------------------------------------------------------------
Processing file: [02. Be Careful What You Wish For.wav]
------------------------------------------------------------
This track looks like MPEG with probability 100%
------------------------------------------------------------
Processing file: [03. Vacant.wav]
------------------------------------------------------------
This track looks like MPEG with probability 73%
------------------------------------------------------------
Processing file: [04. Contextual.wav]
------------------------------------------------------------
This track looks like MPEG with probability 95%
------------------------------------------------------------
Processing file: [05. Vadalfjol.wav]
------------------------------------------------------------
This track looks like MPEG with probability 100%
------------------------------------------------------------
Processing file: [06. Beyond The Abyss.wav]
------------------------------------------------------------
This track looks like MPEG with probability 95%
------------------------------------------------------------
Processing file: [07. Verdant.wav]
------------------------------------------------------------
This track looks like MPEG with probability 95%
------------------------------------------------------------
Processing file: [08. Flux.wav]
------------------------------------------------------------
This track looks like MPEG with probability 95%
------------------------------------------------------------
Processing file: [09. Evolution.wav]
------------------------------------------------------------
This track looks like MPEG with probability 99%
------------------------------------------------------------
Processing file: [10. Cantus.wav]
------------------------------------------------------------
This track looks like MPEG with probability 98%
------------------------------------------------------------
Processing file: [11. If You Ask Me.wav]
------------------------------------------------------------
This track looks like MPEG with probability 95%
------------------------------------------------------------
Processing file: [12. New England Chronicles.wav]
------------------------------------------------------------
This track looks like MPEG with probability 95%
------------------------------------------------------------
Processing file: [13. Pensive.wav]
------------------------------------------------------------
This track looks like MPEG with probability 95%
------------------------------------------------------------
Processing file: [14. Other Room.wav]
------------------------------------------------------------
This track looks like MPEG with probability 95%
------------------------------------------------------------
Processing file: [15. Rubikon.wav]
------------------------------------------------------------
This track looks like MPEG with probability 73%
------------------------------------------------------------
Final Conclusion:
------------------------------------------------------------
These tracks looks like MPEGs with probability 100%
Доп. информация:
 
AAJ Review
Irish guitar wiz Mark O'Leary's relentless pursuit of melding his improvisational expertise with some of the top guns in the jazz-based business continues here during this trio setting recorded in Seattle, Washington. On this 2008 studio set, the musicians quietly surge into abstract-minimalism via the free-improv route. With O'Leary's harmonically appeasing volume control techniques and fluid single note flurries, the overall musical portraiture is often fabricated upon subtle exchanges amid delicately articulated peaks and valleys.
Pianist Wayne Horvitz also employs a prepared piano in spots while drummer Dylan Van der Schyff primarily serves as a colorist due to his gently paced cymbal swashes and asymmetrical pulses. Much of the program contains probing dialogues among the players. But O'Leary occasionally steers the band into bluesy motifs, underscored with ethereal implications. Yet the piece titled "Verdant," is partly about variable rhythmic metrics, subdivided into call/response dialogues and topped off with O' Leary's breezy lines and a carefree stride.
Ultimately, the band purveys mood-evoking sentiment, although there isn't much variance when considering the sum of the parts. And in some instances, the novelty wears a bit thin, especially during the third segment of the album. However, they manage to conjure up elicit imagery that might spark notions of a tranquil nature setting. Either way, the music iterated throughout does parallel the implications set forth by the album's title, although the thematic fluctuations bring about a calming effect.
 
Состав
Drums, Percussion – Dylan Van Der Schyff
Guitar – Mark O'Leary
Piano, Piano [Prepared Piano] – Wayne Horvitz
Recorded: Other Room Studio, Seattle
Mixed: BPM Cork
По всем вопросам пишите личное сообщение пользователю M0p94ok.
16:41
205
Нет комментариев. Ваш будет первым!