Вы используете незарегистрированную версию компонента "Вкладки"!

Поиск

(Free Jazz, Free Improvisation, Electronic Jazz) [CD] Scoolptures - Materiale Umano - 2009, FLAC (image+.cue), lossless

(Free Jazz, Free Improvisation, Electronic Jazz) [CD] Scoolptures - Materiale Umano - 2009, FLAC (image+.cue), lossless
Треклист:
Scoolptures / Materiale Umano
Жанр: Free Jazz, Free Improvisation, Electronic Jazz
Носитель: CD
Страна-производитель диска: UK
Год издания: 2009
Издатель (лейбл): Leo Records
Номер по каталогу: CD LR 546
Аудиокодек: FLAC (*.flac)
Тип рипа: image+.cue
Битрейт аудио: lossless
Продолжительность: 57:19
Источник (релизер): CD
Наличие сканов в содержимом раздачи: нет
Треклист:
1 Brainslice 3:48
2 Bellyslice 4:26
3 Tactslice 3:16
4 Chunkslice 5:11
5 Liverslice 4:19
6 Lipslice 2:47
7 Breathslice 2:03
8 Hipslice 5:43
9 Lungslice 4:31
10 Nerveslice 5:55
11 Lostslice 4:23
12 Tumslice 3:39
13 Skinslice 7:11
 
Лог создания рипа
Exact Audio Copy V1.0 beta 2 from 29. April 2011
EAC extraction logfile from 3. February 2014, 11:18
Scoolptures / Materiale Umano
Used drive : Optiarc DVD RW AD-7170A Adapter: 0 ID: 0
Read mode : Secure
Utilize accurate stream : Yes
Defeat audio cache : Yes
Make use of C2 pointers : No
Read offset correction : 48
Overread into Lead-In and Lead-Out : No
Fill up missing offset samples with silence : Yes
Delete leading and trailing silent blocks : No
Null samples used in CRC calculations : Yes
Used interface : Native Win32 interface for Win NT & 2000
Used output format : User Defined Encoder
Selected bitrate : 320 kBit/s
Quality : High
Add ID3 tag : No
Command line compressor : C:\Program Files\Exact Audio Copy\Flac\flac.exe
Additional command line options : -V -8 -T "Date=%year%" -T "Genre=%genre%" %source%
TOC of the extracted CD
Track | Start | Length | Start sector | End sector
---------------------------------------------------------
1 | 0:00.00 | 3:48.54 | 0 | 17153
2 | 3:48.54 | 4:26.04 | 17154 | 37107
3 | 8:14.58 | 3:16.63 | 37108 | 51870
4 | 11:31.46 | 5:11.36 | 51871 | 75231
5 | 16:43.07 | 4:19.20 | 75232 | 94676
6 | 21:02.27 | 2:47.50 | 94677 | 107251
7 | 23:50.02 | 2:03.68 | 107252 | 116544
8 | 25:53.70 | 5:43.00 | 116545 | 142269
9 | 31:36.70 | 4:31.43 | 142270 | 162637
10 | 36:08.38 | 5:55.08 | 162638 | 189270
11 | 42:03.46 | 4:25.15 | 189271 | 209160
12 | 46:28.61 | 3:39.67 | 209161 | 225652
13 | 50:08.53 | 7:11.04 | 225653 | 257981
Range status and errors
Selected range
Filename K:\ЕАС\Scoolptures - Materiale Umano.wav
Peak level 98.1 %
Extraction speed 1.9 X
Range quality 99.9 %
Test CRC 34127E21
Copy CRC 34127E21
Copy OK
No errors occurred
AccurateRip summary
Track 1 accurately ripped (confidence 2) [3CC537AE] (AR v1)
Track 2 accurately ripped (confidence 1) [D551BFA0] (AR v2)
Track 3 accurately ripped (confidence 1) [BC8E1095] (AR v2)
Track 4 accurately ripped (confidence 1) [BEC796FD] (AR v2)
Track 5 accurately ripped (confidence 1) [9A544028] (AR v2)
Track 6 accurately ripped (confidence 2) [9EEE9835] (AR v1)
Track 7 accurately ripped (confidence 1) [DC0E40D2] (AR v2)
Track 8 accurately ripped (confidence 2) [6B65FE3E] (AR v1)
Track 9 accurately ripped (confidence 1) [20519D64] (AR v2)
Track 10 accurately ripped (confidence 1) [3337A278] (AR v2)
Track 11 accurately ripped (confidence 1) [77F407C5] (AR v2)
Track 12 accurately ripped (confidence 1) [32BAC363] (AR v2)
Track 13 accurately ripped (confidence 1) [8A000DA8] (AR v2)
All tracks accurately ripped
End of status report
==== Log checksum F1736268F49795E84E82EF5EB52A7FB22AA11648DC1E406AF80CBA42440E38F0 ====
 
Содержание индексной карты (.CUE)
REM GENRE Jazz
REM DATE 2009
REM DISCID A10D6F0D
REM COMMENT "ExactAudioCopy v1.0b2"
PERFORMER "Scoolptures"
TITLE "Materiale Umano"
FILE "Scoolptures - Materiale Umano.flac" WAVE
TRACK 01 AUDIO
TITLE "Brainslice"
PERFORMER "Scoolptures"
ISRC 000000000000
FLAGS DCP
INDEX 01 00:00:00
TRACK 02 AUDIO
TITLE "Bellyslice"
PERFORMER "Scoolptures"
ISRC 000000000000
FLAGS DCP
INDEX 01 03:48:54
TRACK 03 AUDIO
TITLE "Tactslice"
PERFORMER "Scoolptures"
ISRC 000000000000
FLAGS DCP
INDEX 01 08:14:58
TRACK 04 AUDIO
TITLE "Chunkslice"
PERFORMER "Scoolptures"
ISRC 000000000000
FLAGS DCP
INDEX 01 11:31:46
TRACK 05 AUDIO
TITLE "Liverslice"
PERFORMER "Scoolptures"
ISRC 000000000000
FLAGS DCP
INDEX 01 16:43:07
TRACK 06 AUDIO
TITLE "Lipslice"
PERFORMER "Scoolptures"
ISRC 000000000000
FLAGS DCP
INDEX 01 21:02:27
TRACK 07 AUDIO
TITLE "Breathslice"
PERFORMER "Scoolptures"
ISRC 000000000000
FLAGS DCP
INDEX 01 23:50:02
TRACK 08 AUDIO
TITLE "Hipslice"
PERFORMER "Scoolptures"
ISRC 000000000000
FLAGS DCP
INDEX 01 25:53:70
TRACK 09 AUDIO
TITLE "Lungslice"
PERFORMER "Scoolptures"
ISRC 000000000000
FLAGS DCP
INDEX 01 31:36:70
TRACK 10 AUDIO
TITLE "Nerveslice"
PERFORMER "Scoolptures"
ISRC 000000000000
FLAGS DCP
INDEX 01 36:08:38
TRACK 11 AUDIO
TITLE "Lostslice"
PERFORMER "Scoolptures"
ISRC 000000000000
FLAGS DCP
INDEX 01 42:03:46
TRACK 12 AUDIO
TITLE "Tumslice"
PERFORMER "Scoolptures"
ISRC 000000000000
FLAGS DCP
INDEX 00 46:27:01
INDEX 01 46:28:61
TRACK 13 AUDIO
TITLE "Skinslice"
PERFORMER "Scoolptures"
ISRC 000000000000
FLAGS DCP
INDEX 01 50:08:53
Доп. информация: Recorded at Digitube Studio April 14th/25th, 2009
 
Состав
Bass Clarinet, Alto Saxophone, Shakuhachi – Achille Succi
Double Bass, Electronics [Live], Metallophone, Concept By – Nicola Negrini
Drums, Voice, Electronics [Live] – Philippe Garcia
Electronics [Live, Sinewaves] – Antonio Della Marina
По всем вопросам пишите личное сообщение пользователю M0p94ok.
23:14
127
Нет комментариев. Ваш будет первым!