Вы используете незарегистрированную версию компонента "Вкладки"!

Поиск

(Avant-Garde Jazz, Free Improvisation) [CD] Cecil Taylor - 1955-1961 {Giants Of Jazz} - 1996, FLAC (tracks+.cue), lossless

(Avant-Garde Jazz, Free Improvisation) [CD] Cecil Taylor - 1955-1961 {Giants Of Jazz} - 1996, FLAC (tracks+.cue), lossless
Треклист:
♦ Cecil Taylor - 1955-1961 {Giants Of Jazz} ♦
Жанр: Avant-Garde Jazz, Free Improvisation
Носитель: CD
Страна-производитель диска: Italy
Год издания: 1996
Издатель (лейбл): Giants Of Jazz
Номер по каталогу: CD 53172
Аудиокодек: FLAC (*.flac)
Тип рипа: tracks+.cue
Битрейт аудио: lossless
Продолжительность: 01:10:27
Источник (релизер): Рип с диска.
Наличие сканов в содержимом раздачи: да
Треклист:
01. Bemsha Swing [07:24]
02. Things Ain't What They Used To Be [10:07]
03. Cindy's Main Mood [05:12]
04. Sweet And Lovely [06:37]
05. Air [08:48]
06. Azure [07:29]
07. Charge 'Em Blues [11:07]
08. Port Of Call [04:19]
09. You'd Be So Nice To Come Home To [09:19]
 
Лог создания рипа
Exact Audio Copy V1.0 beta 3 from 29. August 2011
EAC extraction logfile from 3. February 2014, 22:12
Cecil Taylor / 1955 -1961
Used drive : ATAPI iHAS124 D Adapter: 1 ID: 0
Read mode : Secure
Utilize accurate stream : Yes
Defeat audio cache : Yes
Make use of C2 pointers : No
Read offset correction : 6
Overread into Lead-In and Lead-Out : No
Fill up missing offset samples with silence : Yes
Delete leading and trailing silent blocks : No
Null samples used in CRC calculations : Yes
Used interface : Native Win32 interface for Win NT & 2000
Gap handling : Appended to previous track
Used output format : User Defined Encoder
Selected bitrate : 128 kBit/s
Quality : High
Add ID3 tag : No
Command line compressor : C:\Program Files (x86)\Exact Audio Copy\Flac\flac.exe
Additional command line options : -V -8 -T "Genre=%genre%" -T "Artist=%artist%" -T "Title=%title%" -T "Album=%albumtitle%" -T "Date=%year%" -T "Tracknumber=%tracknr%" -T "Comment=%comment%" %source%
TOC of the extracted CD
Track | Start | Length | Start sector | End sector
---------------------------------------------------------
1 | 0:00.00 | 7:24.50 | 0 | 33349
2 | 7:24.50 | 10:07.70 | 33350 | 78944
3 | 17:32.45 | 5:12.57 | 78945 | 102401
4 | 22:45.27 | 6:37.60 | 102402 | 132236
5 | 29:23.12 | 8:48.48 | 132237 | 171884
6 | 38:11.60 | 7:29.12 | 171885 | 205571
7 | 45:40.72 | 11:07.03 | 205572 | 255599
8 | 56:48.00 | 4:19.57 | 255600 | 275081
9 | 61:07.57 | 9:19.53 | 275082 | 317059
Track 1
Filename D:\1996.Cecil Taylor - 1955-1961 (Giants Of Jazz)\01. Bemsha Swing.wav
Pre-gap length 0:00:02.00
Peak level 57.5 %
Extraction speed 6.5 X
Track quality 100.0 %
Test CRC C8B6FE7F
Copy CRC C8B6FE7F
Accurately ripped (confidence 3) [03B693FE] (AR v1)
Copy OK
Track 2
Filename D:\1996.Cecil Taylor - 1955-1961 (Giants Of Jazz)\02. Things Ain't What They Used To Be.wav
Peak level 55.0 %
Extraction speed 7.8 X
Track quality 100.0 %
Test CRC 30FB672E
Copy CRC 30FB672E
Accurately ripped (confidence 3) [CDC5E540] (AR v1)
Copy OK
Track 3
Filename D:\1996.Cecil Taylor - 1955-1961 (Giants Of Jazz)\03. Cindy's Main Mood.wav
Peak level 99.9 %
Extraction speed 8.2 X
Track quality 100.0 %
Test CRC 6C205012
Copy CRC 6C205012
Accurately ripped (confidence 3) [BC380F00] (AR v1)
Copy OK
Track 4
Filename D:\1996.Cecil Taylor - 1955-1961 (Giants Of Jazz)\04. Sweet And Lovely.wav
Peak level 56.4 %
Extraction speed 9.0 X
Track quality 100.0 %
Test CRC BC9BCFFF
Copy CRC BC9BCFFF
Accurately ripped (confidence 3) [1E346D1A] (AR v1)
Copy OK
Track 5
Filename D:\1996.Cecil Taylor - 1955-1961 (Giants Of Jazz)\05. Air.wav
Peak level 58.8 %
Extraction speed 10.0 X
Track quality 100.0 %
Test CRC F0FFECFE
Copy CRC F0FFECFE
Accurately ripped (confidence 2) [41AF6C23] (AR v1)
Copy OK
Track 6
Filename D:\1996.Cecil Taylor - 1955-1961 (Giants Of Jazz)\06. Azure.wav
Peak level 66.6 %
Extraction speed 9.9 X
Track quality 99.9 %
Test CRC 8C5E7668
Copy CRC 8C5E7668
Accurately ripped (confidence 2) [6C23AAC8] (AR v1)
Copy OK
Track 7
Filename D:\1996.Cecil Taylor - 1955-1961 (Giants Of Jazz)\07. Charge 'Em Blues.wav
Peak level 62.9 %
Extraction speed 11.6 X
Track quality 100.0 %
Test CRC D9F30E4A
Copy CRC D9F30E4A
Accurately ripped (confidence 2) [1C1B9437] (AR v1)
Copy OK
Track 8
Filename D:\1996.Cecil Taylor - 1955-1961 (Giants Of Jazz)\08. Port Of Call.wav
Peak level 57.2 %
Extraction speed 11.3 X
Track quality 100.0 %
Test CRC DE537714
Copy CRC DE537714
Accurately ripped (confidence 3) [58D66E14] (AR v1)
Copy OK
Track 9
Filename D:\1996.Cecil Taylor - 1955-1961 (Giants Of Jazz)\09. You'd Be So Nice To Come Home To.wav
Peak level 62.6 %
Extraction speed 12.6 X
Track quality 100.0 %
Test CRC 27B8E08C
Copy CRC 27B8E08C
Accurately ripped (confidence 2) [A8461E55] (AR v1)
Copy OK
All tracks accurately ripped
No errors occurred
End of status report
==== Log checksum 3281824CF4AE7DCCF0537FC750640D9BE51041D96AF01FC6092FCD185D5FF0AD ====
 
Содержание индексной карты (.CUE)
REM GENRE Jazz
REM DATE 1996
REM DISCID 7D108309
REM COMMENT "ExactAudioCopy v1.0b3"
PERFORMER "Cecil Taylor"
TITLE "1955 -1961"
FILE "01. Bemsha Swing.wav" WAVE
TRACK 01 AUDIO
TITLE "Bemsha Swing"
PERFORMER "Cecil Taylor"
INDEX 01 00:00:00
FILE "02. Things Ain't What They Used To Be.wav" WAVE
TRACK 02 AUDIO
TITLE "Things Ain't What They Used To Be"
PERFORMER "Cecil Taylor"
INDEX 01 00:00:00
FILE "03. Cindy's Main Mood.wav" WAVE
TRACK 03 AUDIO
TITLE "Cindy's Main Mood"
PERFORMER "Cecil Taylor"
INDEX 01 00:00:00
FILE "04. Sweet And Lovely.wav" WAVE
TRACK 04 AUDIO
TITLE "Sweet And Lovely"
PERFORMER "Cecil Taylor"
INDEX 01 00:00:00
FILE "05. Air.wav" WAVE
TRACK 05 AUDIO
TITLE "Air"
PERFORMER "Cecil Taylor"
INDEX 01 00:00:00
FILE "06. Azure.wav" WAVE
TRACK 06 AUDIO
TITLE "Azure"
PERFORMER "Cecil Taylor"
INDEX 01 00:00:00
FILE "07. Charge 'Em Blues.wav" WAVE
TRACK 07 AUDIO
TITLE "Charge 'Em Blues"
PERFORMER "Cecil Taylor"
INDEX 01 00:00:00
FILE "08. Port Of Call.wav" WAVE
TRACK 08 AUDIO
TITLE "Port Of Call"
PERFORMER "Cecil Taylor"
INDEX 01 00:00:00
FILE "09. You'd Be So Nice To Come Home To.wav" WAVE
TRACK 09 AUDIO
TITLE "You'd Be So Nice To Come Home To"
PERFORMER "Cecil Taylor"
INDEX 01 00:00:00
Any questions -> support@pro-jazz.com. По всем вопросам пишите -> support@pro-jazz.com
23:14
128
Нет комментариев. Ваш будет первым!