Вы используете незарегистрированную версию компонента "Вкладки"!

Поиск

(Free Jazz, Free Improvisation, ECM) Paul Bley / Evan Parker / Barre Phillips - Sankt Gerold - 2000, FLAC (tracks+.cue), lossless

Треклист:
Paul Bley / Evan Parker / Barre Phillips - Sankt Gerold
Жанр: Free Jazz, Free Improvisation
Год выпуска диска: 2000
Производитель диска: ECM (ECM 1609, 157 899-2)
Источник: вот.сиди (aet)
Аудио кодек: FLAC
Тип рипа: tracks+.cue
Битрейт аудио: lossless
Продолжительность: 1:07:16
Трэклист:
Variation 1 10:18 Phillips, Parker, Bley
Variation 2 7:12 Phillips, Parker, Bley
Variation 3 2:56 Phillips
Variation 4 1:59 Parker
Variation 5 6:20 Phillips, Parker, Bley
Variation 6 3:56 Bley
Variation 7 7:13 Phillips
Variation 8 8:14 Phillips, Parker, Bley
Variation 9 7:03 Bley
Variation 10 5:22 Parker
Variation 11 4:49 Phillips, Parker, Bley
Variation 12 1:29 Parker
Barre Phillips Double Bass
Paul Bley Piano
Evan Parker Soprano & Tenor Saxophones
 
Отчёт EAC
Exact Audio Copy V0.99 prebeta 3 from 28. July 2007
EAC extraction logfile from 9. May 2009, 18:31
Paul Bley, Evan Parker, Barre Phillips / Sankt Gerold Variations
Used drive : TSSTcorpDVD+-RW TS-L632H Adapter: 1 ID: 0
Read mode : Secure
Utilize accurate stream : Yes
Defeat audio cache : Yes
Make use of C2 pointers : No
Read offset correction : 6
Overread into Lead-In and Lead-Out : No
Fill up missing offset samples with silence : Yes
Delete leading and trailing silent blocks : No
Null samples used in CRC calculations : Yes
Used interface : Native Win32 interface for Win NT & 2000
Gap handling : Appended to previous track
Used output format : User Defined Encoder
Selected bitrate : 128 kBit/s
Quality : High
Add ID3 tag : No
Command line compressor : C:\Program Files\Exact Audio Copy\Flac\flac.exe
Additional command line options : -V -8 -T "artist=%a" -T "title=%t" -T "album=%g" -T "date=%y" -T "tracknumber=%n" -T "genre=%m" %s
TOC of the extracted CD
Track | Start | Length | Start sector | End sector
---------------------------------------------------------
1 | 0:00.00 | 10:18.52 | 0 | 46401
2 | 10:18.52 | 7:16.08 | 46402 | 79109
3 | 17:34.60 | 3:00.20 | 79110 | 92629
4 | 20:35.05 | 2:02.47 | 92630 | 101826
5 | 22:37.52 | 6:20.20 | 101827 | 130346
6 | 28:57.72 | 3:56.33 | 130347 | 148079
7 | 32:54.30 | 7:13.35 | 148080 | 180589
8 | 40:07.65 | 8:19.00 | 180590 | 218014
9 | 48:26.65 | 7:03.57 | 218015 | 249796
10 | 55:30.47 | 5:25.65 | 249797 | 274236
11 | 60:56.37 | 4:49.65 | 274237 | 295976
12 | 65:46.27 | 1:29.35 | 295977 | 302686
Track 1
Filename C:\Users\Alex\Torrents\Rips\Paul Bley, Evan Parker, Barre Phillips - 2000 - Sankt Gerold Variations\01 - Variation 1.wav
Pre-gap length 0:00:02.00
Peak level 100.0 %
Track quality 100.0 %
Test CRC C53826FB
Copy CRC C53826FB
Accurately ripped (confidence 2) [F2C205DA]
Copy OK
Track 2
Filename C:\Users\Alex\Torrents\Rips\Paul Bley, Evan Parker, Barre Phillips - 2000 - Sankt Gerold Variations\02 - Variation 2.wav
Peak level 100.0 %
Track quality 100.0 %
Test CRC 697AECB8
Copy CRC 697AECB8
Accurately ripped (confidence 2) [BC2DFF8F]
Copy OK
Track 3
Filename C:\Users\Alex\Torrents\Rips\Paul Bley, Evan Parker, Barre Phillips - 2000 - Sankt Gerold Variations\03 - Variation 3.wav
Pre-gap length 0:00:03.48
Peak level 78.0 %
Track quality 100.0 %
Test CRC 36107009
Copy CRC 36107009
Accurately ripped (confidence 2) [285D84C4]
Copy OK
Track 4
Filename C:\Users\Alex\Torrents\Rips\Paul Bley, Evan Parker, Barre Phillips - 2000 - Sankt Gerold Variations\04 - Variation 4.wav
Pre-gap length 0:00:03.30
Peak level 68.6 %
Track quality 100.0 %
Test CRC 04C05AFB
Copy CRC 04C05AFB
Accurately ripped (confidence 2) [5B502647]
Copy OK
Track 5
Filename C:\Users\Alex\Torrents\Rips\Paul Bley, Evan Parker, Barre Phillips - 2000 - Sankt Gerold Variations\05 - Variation 5.wav
Pre-gap length 0:00:02.67
Peak level 84.9 %
Track quality 100.0 %
Test CRC 7B0251C6
Copy CRC 7B0251C6
Accurately ripped (confidence 2) [48950F15]
Copy OK
Track 6
Filename C:\Users\Alex\Torrents\Rips\Paul Bley, Evan Parker, Barre Phillips - 2000 - Sankt Gerold Variations\06 - Variation 6.wav
Peak level 84.0 %
Track quality 99.9 %
Test CRC FCC09F2F
Copy CRC FCC09F2F
Accurately ripped (confidence 2) [DD9E4A16]
Copy OK
Track 7
Filename C:\Users\Alex\Torrents\Rips\Paul Bley, Evan Parker, Barre Phillips - 2000 - Sankt Gerold Variations\07 - Variation 7.wav
Peak level 99.8 %
Track quality 100.0 %
Test CRC 2D42CB90
Copy CRC 2D42CB90
Accurately ripped (confidence 2) [094C4985]
Copy OK
Track 8
Filename C:\Users\Alex\Torrents\Rips\Paul Bley, Evan Parker, Barre Phillips - 2000 - Sankt Gerold Variations\08 - Variation 8.wav
Peak level 88.2 %
Track quality 100.0 %
Test CRC E61F832F
Copy CRC E61F832F
Accurately ripped (confidence 2) [340F73C4]
Copy OK
Track 9
Filename C:\Users\Alex\Torrents\Rips\Paul Bley, Evan Parker, Barre Phillips - 2000 - Sankt Gerold Variations\09 - Variation 9.wav
Pre-gap length 0:00:04.58
Peak level 77.4 %
Track quality 100.0 %
Test CRC 8D816744
Copy CRC 8D816744
Accurately ripped (confidence 2) [23BFEEEA]
Copy OK
Track 10
Filename C:\Users\Alex\Torrents\Rips\Paul Bley, Evan Parker, Barre Phillips - 2000 - Sankt Gerold Variations\10 - Variation 10.wav
Peak level 44.5 %
Track quality 100.0 %
Test CRC 350B0690
Copy CRC 350B0690
Accurately ripped (confidence 2) [A9ECD10B]
Copy OK
Track 11
Filename C:\Users\Alex\Torrents\Rips\Paul Bley, Evan Parker, Barre Phillips - 2000 - Sankt Gerold Variations\11 - Variation 11.wav
Pre-gap length 0:00:02.67
Peak level 96.1 %
Track quality 99.9 %
Test CRC 29E81BE3
Copy CRC 29E81BE3
Accurately ripped (confidence 2) [388102AB]
Copy OK
Track 12
Filename C:\Users\Alex\Torrents\Rips\Paul Bley, Evan Parker, Barre Phillips - 2000 - Sankt Gerold Variations\12 - Variation 12.wav
Peak level 67.2 %
Track quality 100.0 %
Test CRC 877F416B
Copy CRC 877F416B
Accurately ripped (confidence 2) [E0534F04]
Copy OK
All tracks accurately ripped
No errors occurred
End of status report
 
Отчёт Audiocheckera
AUDIOCHECKER v1.2 - by Dester - opdester@freemail.hu
~~~~~~~~~~~~~~~~~
01 -===- H:\Песеньки\lossless\paul bley evan parker barre phillips\sankt gerold variations 2000\01 - Variation 1.flac
Extracted successfully
Conclusion: This track looks like CDDA with probability 100%
02 -===- H:\Песеньки\lossless\paul bley evan parker barre phillips\sankt gerold variations 2000\02 - Variation 2.flac
Extracted successfully
Conclusion: This track looks like CDDA with probability 100%
03 -===- H:\Песеньки\lossless\paul bley evan parker barre phillips\sankt gerold variations 2000\03 - Variation 3.flac
Extracted successfully
Conclusion: This track looks like CDDA with probability 100%
04 -===- H:\Песеньки\lossless\paul bley evan parker barre phillips\sankt gerold variations 2000\04 - Variation 4.flac
Extracted successfully
Conclusion: This track looks like CDDA with probability 100%
05 -===- H:\Песеньки\lossless\paul bley evan parker barre phillips\sankt gerold variations 2000\05 - Variation 5.flac
Extracted successfully
Conclusion: This track looks like CDDA with probability 100%
06 -===- H:\Песеньки\lossless\paul bley evan parker barre phillips\sankt gerold variations 2000\06 - Variation 6.flac
Extracted successfully
Conclusion: This track looks like CDDA with probability 100%
07 -===- H:\Песеньки\lossless\paul bley evan parker barre phillips\sankt gerold variations 2000\07 - Variation 7.flac
Extracted successfully
Conclusion: This track looks like CDDA with probability 100%
08 -===- H:\Песеньки\lossless\paul bley evan parker barre phillips\sankt gerold variations 2000\08 - Variation 8.flac
Extracted successfully
Conclusion: This track looks like CDDA with probability 100%
09 -===- H:\Песеньки\lossless\paul bley evan parker barre phillips\sankt gerold variations 2000\09 - Variation 9.flac
Extracted successfully
Conclusion: This track looks like CDDA with probability 100%
10 -===- H:\Песеньки\lossless\paul bley evan parker barre phillips\sankt gerold variations 2000\10 - Variation 10.flac
Extracted successfully
Conclusion: This track looks like CDDA with probability 99%
11 -===- H:\Песеньки\lossless\paul bley evan parker barre phillips\sankt gerold variations 2000\11 - Variation 11.flac
Extracted successfully
Conclusion: This track looks like CDDA with probability 99%
12 -===- H:\Песеньки\lossless\paul bley evan parker barre phillips\sankt gerold variations 2000\12 - Variation 12.flac
Extracted successfully
Conclusion: This track looks like CDDA with probability 100%
 
cue
REM GENRE Jazz
REM DATE 2000
REM DISCID BB0FC30C
REM COMMENT "ExactAudioCopy v0.99pb3"
PERFORMER "Paul Bley, Evan Parker, Barre Phillips"
TITLE "Sankt Gerold Variations"
FILE "Paul Bley, Evan Parker, Barre Phillips - 2000 - Sankt Gerold Variations\01 - Variation 1.wav" WAVE
TRACK 01 AUDIO
TITLE "Variation 1"
PERFORMER "Paul Bley, Evan Parker, Barre Phillips"
INDEX 01 00:00:00
FILE "Paul Bley, Evan Parker, Barre Phillips - 2000 - Sankt Gerold Variations\02 - Variation 2.wav" WAVE
TRACK 02 AUDIO
TITLE "Variation 2"
PERFORMER "Paul Bley, Evan Parker, Barre Phillips"
INDEX 01 00:00:00
TRACK 03 AUDIO
TITLE "Variation 3"
PERFORMER "Paul Bley, Evan Parker, Barre Phillips"
INDEX 00 07:12:35
FILE "Paul Bley, Evan Parker, Barre Phillips - 2000 - Sankt Gerold Variations\03 - Variation 3.wav" WAVE
INDEX 01 00:00:00
TRACK 04 AUDIO
TITLE "Variation 4"
PERFORMER "Paul Bley, Evan Parker, Barre Phillips"
INDEX 00 02:56:65
FILE "Paul Bley, Evan Parker, Barre Phillips - 2000 - Sankt Gerold Variations\04 - Variation 4.wav" WAVE
INDEX 01 00:00:00
TRACK 05 AUDIO
TITLE "Variation 5"
PERFORMER "Paul Bley, Evan Parker, Barre Phillips"
INDEX 00 01:59:55
FILE "Paul Bley, Evan Parker, Barre Phillips - 2000 - Sankt Gerold Variations\05 - Variation 5.wav" WAVE
INDEX 01 00:00:00
FILE "Paul Bley, Evan Parker, Barre Phillips - 2000 - Sankt Gerold Variations\06 - Variation 6.wav" WAVE
TRACK 06 AUDIO
TITLE "Variation 6"
PERFORMER "Paul Bley, Evan Parker, Barre Phillips"
INDEX 01 00:00:00
FILE "Paul Bley, Evan Parker, Barre Phillips - 2000 - Sankt Gerold Variations\07 - Variation 7.wav" WAVE
TRACK 07 AUDIO
TITLE "Variation 7"
PERFORMER "Paul Bley, Evan Parker, Barre Phillips"
INDEX 01 00:00:00
FILE "Paul Bley, Evan Parker, Barre Phillips - 2000 - Sankt Gerold Variations\08 - Variation 8.wav" WAVE
TRACK 08 AUDIO
TITLE "Variation 8"
PERFORMER "Paul Bley, Evan Parker, Barre Phillips"
INDEX 01 00:00:00
TRACK 09 AUDIO
TITLE "Variation 9"
PERFORMER "Paul Bley, Evan Parker, Barre Phillips"
INDEX 00 08:14:17
FILE "Paul Bley, Evan Parker, Barre Phillips - 2000 - Sankt Gerold Variations\09 - Variation 9.wav" WAVE
INDEX 01 00:00:00
FILE "Paul Bley, Evan Parker, Barre Phillips - 2000 - Sankt Gerold Variations\10 - Variation 10.wav" WAVE
TRACK 10 AUDIO
TITLE "Variation 10"
PERFORMER "Paul Bley, Evan Parker, Barre Phillips"
INDEX 01 00:00:00
TRACK 11 AUDIO
TITLE "Variation 11"
PERFORMER "Paul Bley, Evan Parker, Barre Phillips"
INDEX 00 05:22:73
FILE "Paul Bley, Evan Parker, Barre Phillips - 2000 - Sankt Gerold Variations\11 - Variation 11.wav" WAVE
INDEX 01 00:00:00
FILE "Paul Bley, Evan Parker, Barre Phillips - 2000 - Sankt Gerold Variations\12 - Variation 12.wav" WAVE
TRACK 12 AUDIO
TITLE "Variation 12"
PERFORMER "Paul Bley, Evan Parker, Barre Phillips"
INDEX 01 00:00:00
По всем вопросам пишите личное сообщение пользователю M0p94ok.
19:40
169
Нет комментариев. Ваш будет первым!