Вы используете незарегистрированную версию компонента "Вкладки"!

Поиск

(Free Improvisation, Free Jazz) William Parker & Hamid Drake - volume 2: Summer Snow - 2007, FLAC (tracks+.cue), lossless

(Free Improvisation, Free Jazz) William Parker & Hamid Drake - volume 2: Summer Snow - 2007, FLAC (tracks+.cue), lossless
Треклист:
William Parker & Hamid Drake - volume 2: Summer Snow
Жанр: Free Improvisation, Free Jazz
Год выпуска диска: 2007
Производитель диска: AUM Fidelity AUM041
Аудио кодек: FLAC
Тип рипа: tracks+.cue
Битрейт аудио: lossless
Продолжительность: 52:47
Источник: сеть
Трэклист:
1. Awake, Arise
2. Sky
3. Earth
4. Pahos
5. Sifting the Dust
6. Edge of Everything
7. Traces of the Beloved
8. Anaya Dancing
9. Konte
10. Faces
11. Hadra
William Parker: Bass, donson' ngoni, shakuhachi, dumbek, talking drum, water bowls
Hamid Drake: Drums, tabla, frame drum, gongs
Recorded by Michael Marciano on September 21, 2005 at Systems Two Studio, Brooklyn
Mixed by Michael Marciano and S. Joerg at Systems Two on June 20 & September 7, 2006
Final Mastering by Michael Marciano
All songs composed and performed live (shakuhachi overdubbed on tracks 3+4)
Published by Smiling Forehead/Centering Music (BMI)
Produced by Steven Joerg
Доп. информация:
 
скрытый текст
A William Parker/Hamid Drake live performance is an experience you will always remember. Their music also translates quite well to the CD format, and this recording, one of many they have done in the past decade, is no less vibrant. Parker plays upright bass on only two tracks; this is something he has been trending away from. "Anaya Dancing" is a short bass ostinato 12/8 modal workout with Drake on the drum kit, and the 11-and-a-half-minute "Konte" is in song form, starting in a rock & roll rhythm, morphing to a free improvised bridge with clattery bass and brushed drums, then concluding with a light jazz swing coda. Many other tracks feature Parker on the doson'ngoni, or hunter's guitar, brought into this style initially by Don Cherry. The instrument is an organ of absolute, sheer beauty, sounding like a muted kora, and is accompanied by either Drake's tabla or frame drums. "Sky" in 7/8 time is spacious and pristine, "Earth" in 5/4 naturally feels organic with the guitar a little rattle-ish and overtoned, while the highlight "Faces" shows a more animated Latin or tango-ish style. A lengthy "Pathos" has Parker on shakuhachi flute set up by a long tabla solo in a defined freneticism. There's meditational and ethereal music as well: "Edge of Everything," featuring bowed water bowls juxtaposed against small percussion, and the gong-informed spiritual "Sifting the Dust." The 40-second closer, "Hadra," has Parker playing the musette. The album works as a whole and should be listened to all the way through for maximum enjoyment. All of our natural and otherworldly elements are at the duo's command, whether they be ethnic music sources from Asia, Africa, greater Europe, the Middle East, or the heartland of the U.S.A. This is exactly what one should expect from these masters of creative improvised music, and is delivered in spades. -- Allmusic
 
CUE
REM GENRE Jazz
REM DATE 2006
REM DISCID 970C5F0B
REM COMMENT "ExactAudioCopy v0.99pb4"
PERFORMER "William Parker & Hamid Drake"
TITLE "Volume 2: Summer Snow"
FILE "William Parker & Hamid Drake - 01 - Awake, Arise.flac" WAVE
TRACK 01 AUDIO
TITLE "Awake, Arise"
PERFORMER "William Parker & Hamid Drake"
INDEX 01 00:00:00
TRACK 02 AUDIO
TITLE "Sky"
PERFORMER "William Parker & Hamid Drake"
INDEX 00 00:21:14
FILE "William Parker & Hamid Drake - 02 - Sky.flac" WAVE
INDEX 01 00:00:00
TRACK 03 AUDIO
TITLE "Earth"
PERFORMER "William Parker & Hamid Drake"
INDEX 00 07:28:30
FILE "William Parker & Hamid Drake - 03 - Earth.flac" WAVE
INDEX 01 00:00:00
TRACK 04 AUDIO
TITLE "Pahos"
PERFORMER "William Parker & Hamid Drake"
INDEX 00 03:01:65
FILE "William Parker & Hamid Drake - 04 - Pahos.flac" WAVE
INDEX 01 00:00:00
TRACK 05 AUDIO
TITLE "Sifting the Dust"
PERFORMER "William Parker & Hamid Drake"
INDEX 00 09:20:33
FILE "William Parker & Hamid Drake - 05 - Sifting the Dust.flac" WAVE
INDEX 01 00:00:00
TRACK 06 AUDIO
TITLE "Edge of Everything"
PERFORMER "William Parker & Hamid Drake"
INDEX 00 03:47:45
FILE "William Parker & Hamid Drake - 06 - Edge of Everything.flac" WAVE
INDEX 01 00:00:00
TRACK 07 AUDIO
TITLE "Traces of the Beloved"
PERFORMER "William Parker & Hamid Drake"
INDEX 00 03:29:38
FILE "William Parker & Hamid Drake - 07 - Traces of the Beloved.flac" WAVE
INDEX 01 00:00:00
TRACK 08 AUDIO
TITLE "Anaya Dancing"
PERFORMER "William Parker & Hamid Drake"
INDEX 00 01:36:32
FILE "William Parker & Hamid Drake - 08 - Anaya Dancing.flac" WAVE
INDEX 01 00:00:00
TRACK 09 AUDIO
TITLE "Konte"
PERFORMER "William Parker & Hamid Drake"
INDEX 00 03:51:33
FILE "William Parker & Hamid Drake - 09 - Konte.flac" WAVE
INDEX 01 00:00:00
TRACK 10 AUDIO
TITLE "Faces"
PERFORMER "William Parker & Hamid Drake"
INDEX 00 11:31:00
FILE "William Parker & Hamid Drake - 10 - Faces.flac" WAVE
INDEX 01 00:00:00
TRACK 11 AUDIO
TITLE "Hadra"
PERFORMER "William Parker & Hamid Drake"
INDEX 00 07:16:16
FILE "William Parker & Hamid Drake - 11 - Hadra.flac" WAVE
INDEX 01 00:00:00
 
EAC extraction logfile
Exact Audio Copy V0.99 prebeta 4 from 23. January 2008
EAC extraction logfile from 26. July 2009, 16:28
William Parker & Hamid Drake / Volume 2: Summer Snow
Used drive : ASUS DRW-2014L1T Adapter: 4 ID: 0
Read mode : Secure
Utilize accurate stream : Yes
Defeat audio cache : No
Make use of C2 pointers : Yes
Read offset correction : 6
Overread into Lead-In and Lead-Out : No
Fill up missing offset samples with silence : Yes
Delete leading and trailing silent blocks : No
Null samples used in CRC calculations : No
Used interface : Native Win32 interface for Win NT & 2000
Gap handling : Appended to previous track
Used output format : User Defined Encoder
Selected bitrate : 320 kBit/s
Quality : High
Add ID3 tag : No
Command line compressor : C:\Program Files\FLAC\flac.exe
Additional command line options : -8 -T "artist=%a" -T "title=%t" -T "album=%g" -T "date=%y" -T "tracknumber=%n" -T "genre=%m" %s
TOC of the extracted CD
Track | Start | Length | Start sector | End sector
---------------------------------------------------------
1 | 0:00.00 | 0:23.14 | 0 | 1738
2 | 0:23.14 | 7:30.30 | 1739 | 35518
3 | 7:53.44 | 3:03.65 | 35519 | 49308
4 | 10:57.34 | 9:22.33 | 49309 | 91491
5 | 20:19.67 | 3:49.45 | 91492 | 108711
6 | 24:09.37 | 3:31.38 | 108712 | 124574
7 | 27:41.00 | 1:38.32 | 124575 | 131956
8 | 29:19.32 | 3:53.33 | 131957 | 149464
9 | 33:12.65 | 11:33.00 | 149465 | 201439
10 | 44:45.65 | 7:18.16 | 201440 | 234305
11 | 52:04.06 | 0:43.28 | 234306 | 237558
Track 1
Filename F:\William Parker & Hamid Drake - Volume 2- Summer Snow [FLAC, KiNGS]\William Parker & Hamid Drake - 01 - Awake, Arise.wav
Pre-gap length 0:00:02.00
Peak level 97.7 %
Track quality 100.0 %
Copy CRC 92DD8197
Track not present in AccurateRip database
Copy OK
Track 2
Filename F:\William Parker & Hamid Drake - Volume 2- Summer Snow [FLAC, KiNGS]\William Parker & Hamid Drake - 02 - Sky.wav
Pre-gap length 0:00:02.00
Peak level 97.7 %
Track quality 100.0 %
Copy CRC 8796CB27
Track not present in AccurateRip database
Copy OK
Track 3
Filename F:\William Parker & Hamid Drake - Volume 2- Summer Snow [FLAC, KiNGS]\William Parker & Hamid Drake - 03 - Earth.wav
Pre-gap length 0:00:02.00
Peak level 97.7 %
Track quality 100.0 %
Copy CRC C203FF82
Track not present in AccurateRip database
Copy OK
Track 4
Filename F:\William Parker & Hamid Drake - Volume 2- Summer Snow [FLAC, KiNGS]\William Parker & Hamid Drake - 04 - Pahos.wav
Pre-gap length 0:00:02.00
Peak level 97.7 %
Track quality 100.0 %
Copy CRC A2E331C1
Track not present in AccurateRip database
Copy OK
Track 5
Filename F:\William Parker & Hamid Drake - Volume 2- Summer Snow [FLAC, KiNGS]\William Parker & Hamid Drake - 05 - Sifting the Dust.wav
Pre-gap length 0:00:02.00
Peak level 75.6 %
Track quality 100.0 %
Copy CRC FD508439
Track not present in AccurateRip database
Copy OK
Track 6
Filename F:\William Parker & Hamid Drake - Volume 2- Summer Snow [FLAC, KiNGS]\William Parker & Hamid Drake - 06 - Edge of Everything.wav
Pre-gap length 0:00:02.00
Peak level 68.3 %
Track quality 100.0 %
Copy CRC 32F9A254
Track not present in AccurateRip database
Copy OK
Track 7
Filename F:\William Parker & Hamid Drake - Volume 2- Summer Snow [FLAC, KiNGS]\William Parker & Hamid Drake - 07 - Traces of the Beloved.wav
Pre-gap length 0:00:02.00
Peak level 29.5 %
Track quality 100.0 %
Copy CRC B3E11D73
Track not present in AccurateRip database
Copy OK
Track 8
Filename F:\William Parker & Hamid Drake - Volume 2- Summer Snow [FLAC, KiNGS]\William Parker & Hamid Drake - 08 - Anaya Dancing.wav
Pre-gap length 0:00:02.00
Peak level 97.7 %
Track quality 100.0 %
Copy CRC 77AF5AD5
Track not present in AccurateRip database
Copy OK
Track 9
Filename F:\William Parker & Hamid Drake - Volume 2- Summer Snow [FLAC, KiNGS]\William Parker & Hamid Drake - 09 - Konte.wav
Pre-gap length 0:00:02.00
Peak level 97.7 %
Track quality 100.0 %
Copy CRC A785E96A
Track not present in AccurateRip database
Copy OK
Track 10
Filename F:\William Parker & Hamid Drake - Volume 2- Summer Snow [FLAC, KiNGS]\William Parker & Hamid Drake - 10 - Faces.wav
Pre-gap length 0:00:02.00
Peak level 97.7 %
Track quality 100.0 %
Copy CRC E853F6CC
Track not present in AccurateRip database
Copy OK
Track 11
Filename F:\William Parker & Hamid Drake - Volume 2- Summer Snow [FLAC, KiNGS]\William Parker & Hamid Drake - 11 - Hadra.wav
Pre-gap length 0:00:02.00
Peak level 97.7 %
Track quality 99.5 %
Copy CRC A5A4DA62
Track not present in AccurateRip database
Copy OK
None of the tracks are present in the AccurateRip database
No errors occurred
End of status report
Any questions -> support@pro-jazz.com. По всем вопросам пишите -> support@pro-jazz.com
19:40
157
Нет комментариев. Ваш будет первым!