Вы используете незарегистрированную версию компонента "Вкладки"!

Поиск

(Free Jazz, Free Improvisation) Charles Gayle Quartet - Daily Bread - 1998, APE (image+.cue), lossless

(Free Jazz, Free Improvisation) Charles Gayle Quartet - Daily Bread - 1998, APE (image+.cue), lossless
Треклист:
Charles Gayle Quartet - Daily Bread
Жанр: Free Jazz, Free Improvisation
Год выпуска диска: 1998
Производитель диска: Black Saint (Italy)
Аудио кодек: APE
Тип рипа: image+.cue
Битрейт аудио: lossless
Продолжительность: 76'11
Трэклист:
1. This Cup (10:00)
2. Our Sins (6:42)
3. Inner Joy (7:10)
4. Drink (3:57)
5. Earthly Things (10:41)
6. Watch (5:33)
7. Rest A While (6:01)
8. Offering To Christ (15:41)
9. Shout Merrily (8:22)
отчет ЕАС:
 
скрытый текст
Exact Audio Copy V0.99 prebeta 4 from 23. January 2008
Отчёт EAC об извлечении, выполненном 1. февраля 2009, 18:22
Charles Gayle Quartet / Daily Bread
Дисковод: Optiarc DVD RW AD-7173A Adapter: 1 ID: 0
Режим чтения : Достоверность
Использование точного потока : Да
Отключение кэша аудио : Да
Использование указателей C2 : Нет
Коррекция смещения при чтении : 48
Способность читать области Lead-in и Lead-out : Нет
Заполнение пропущенных сэмплов тишиной : Да
Удаление блоков с тишиной в начале и конце : Нет
При вычислениях CRC использовались нулевые сэмплы : Да
Интерфейс : Встроенный Win32-интерфейс для Win NT/2000
Выходной формат : Внутренние WAV-операции
Формат сэмплов : 44.100 Гц; 16 бит; стерео
TOC извлечённого CD
Трек | Старт | Длительность | Начальный сектор | Конечный сектор
---------------------------------------------------------------------
1 | 0:00.00 | 9:58.37 | 0 | 44886
2 | 9:58.37 | 6:42.18 | 44887 | 75054
3 | 16:40.55 | 7:10.42 | 75055 | 107346
4 | 23:51.22 | 3:57.10 | 107347 | 125131
5 | 27:48.32 | 10:41.30 | 125132 | 173236
6 | 38:29.62 | 5:33.18 | 173237 | 198229
7 | 44:03.05 | 8:01.72 | 198230 | 234376
8 | 52:05.02 | 15:41.68 | 234377 | 305019
9 | 67:46.70 | 8:22.40 | 305020 | 342709
Характеристики диапазона извлечения и сообщения об ошибках
Выбранный диапазон
Имя файла I:\APE\с дойзена\Charles Gayle - Daily Bread\Charles Gayle Quartet - Daily Bread.wav
Пиковый уровень 99.9 %
Качество диапазона 100.0 %
CRC копии A1DA2ACA
Копирование... OK
Ошибок не произошло
Конец отчёта
Доп. информация:
Charles Gayle - tenor sax,bass clarinet,viola(2,8)piano(6,7,8)
William Parker - cello,piano(5,7,8)
Wilber Morris - bass
Michael Wimberly - drums,violin(2,8)
Any questions -> support@pro-jazz.com. По всем вопросам пишите -> support@pro-jazz.com
07:50
158
Нет комментариев. Ваш будет первым!