Вы используете незарегистрированную версию компонента "Вкладки"!

Поиск

(Avantgarde, Modern Creative, Abstract, Tzadik) Eyvind Kang - Theater Of Mineral NADEs - 1998, FLAC (tracks+.cue), lossless

(Avantgarde, Modern Creative, Abstract, Tzadik) Eyvind Kang - Theater Of Mineral NADEs - 1998, FLAC (tracks+.cue), lossless
Треклист:
Eyvind Kang - Theater Of Mineral NADEs
Жанр: Avantgarde, Modern Creative, Abstract, Tzadik
Год выпуска диска: 1998
Производитель диска: US
Аудио кодек: FLAC
Тип рипа: tracks+.cue
Битрейт аудио: lossless
Продолжительность: 44:40
Трэклист:
1 The Earth & The Moon (2:02)
2 Jewel Of The Nade (1:20)
3 Theory Of The Supreme Ones (0:38)
4 The Anointment (1:30)
5 Mineralia (2:58)
6 Pleasures Of The Nade (1:20)
7 Consensit Spiritus (3:16)
8 (If I Sing A Song) So Good It (1:50)
9 New Moon (2:00)
10 Suleiman (2:38)
11 Berdache (2:19)
12 Moon (1:14)
13 Mercury (0:47)
14 The Curse (1:04)
15 Landvaettir (0:35)
16 Fate Is Sealed (0:47)
17 Private Misery (0:38)
18 Lost Souls (1:27)
19 Ghost Dance (2:06)
20 Lost Love (1:09)
21 Lover Not A Hater (3:51)
22 Mystic Nade (3:05)
23 Mary Of Magdalen (5:09)
24 Jewel Of The Nade (Reprise) (0:46)
Cello - Brent Arnold (tracks: 17, 18)
Cornemuse, Crumhorn, Recorder, Flute [Bass] - Jamie Philp (tracks: 4 to 7)
Drums - Tucker Martine (tracks: 1, 21, 22)
Flute - Jessica Lurie (tracks: 8, 9)
Percussion - Ed Bias (tracks: 5, 7, 19, 23)
Producer, Composed By, Arranged By, Violin, Guitar, Bass, Keyboards, Mandolin, Tuba, Recorder, Percussion, Voice - Eyvind Kang
Tabla - Vishal Naga (tracks: 8, 9, 15)
Trombone - Steve Moore (5) (tracks: 1, 18)
Voice - Courtney Agguire (tracks: 5, 7, 19)
Harmonium - Christian Asplund (tracks: 3)
Cymbals - Mint (tracks: 12)
Bass - Tari Nelson-Zagar (tracks: 16)
Bass - Ian Rashkin (tracks: 18)
Drums - Mike Stone (tracks: 18)
Flute - Susanna Knapp (tracks: 18)
Guitar - Timothy Young (tracks: 18)
Trumpet - Mike Anderson (tracks: 18)
Guitar - Trey Spruance (tracks: 23)
Violin - Alan Kestle , Terry Hsu (tracks: 18)
Oboe - Emmanuelle Somer (tracks: 24)
Доп. информация:
 
EAC log
Exact Audio Copy V0.99 prebeta 4 from 23. January 2008
EAC extraction logfile from 1. January 2009, 15:57
Eyvind Kang / Theater Of Mineral Nades
Used drive : _NEC DVD_RW ND-3550A Adapter: 0 ID: 0
Read mode : Secure
Utilize accurate stream : Yes
Defeat audio cache : Yes
Make use of C2 pointers : No
Read offset correction : 48
Overread into Lead-In and Lead-Out : No
Fill up missing offset samples with silence : Yes
Delete leading and trailing silent blocks : No
Null samples used in CRC calculations : Yes
Used interface : Native Win32 interface for Win NT & 2000
Gap handling : Appended to previous track
Used output format : User Defined Encoder
Selected bitrate : 1024 kBit/s
Quality : High
Add ID3 tag : No
Command line compressor : C:\Program Files\Exact Audio Copy\FLAC\FLAC.EXE
Additional command line options : -6 -V -T "ARTIST=%a" -T "TITLE=%t" -T "ALBUM=%g" -T "DATE=%y" -T "TRACKNUMBER=%n" -T "GENRE=%m" -T "COMMENT=%e" %s -o %d
TOC of the extracted CD
Track | Start | Length | Start sector | End sector
---------------------------------------------------------
1 | 0:00.00 | 2:02.07 | 0 | 9156
2 | 2:02.07 | 1:20.58 | 9157 | 15214
3 | 3:22.65 | 0:38.20 | 15215 | 18084
4 | 4:01.10 | 1:30.67 | 18085 | 24901
5 | 5:32.02 | 2:58.62 | 24902 | 38313
6 | 8:30.64 | 1:20.00 | 38314 | 44313
7 | 9:50.64 | 3:16.61 | 44314 | 59074
8 | 13:07.50 | 1:50.67 | 59075 | 67391
9 | 14:58.42 | 2:00.25 | 67392 | 76416
10 | 16:58.67 | 2:38.10 | 76417 | 88276
11 | 19:37.02 | 2:19.20 | 88277 | 98721
12 | 21:56.22 | 1:14.08 | 98722 | 104279
13 | 23:10.30 | 0:47.52 | 104280 | 107856
14 | 23:58.07 | 1:04.08 | 107857 | 112664
15 | 25:02.15 | 0:35.05 | 112665 | 115294
16 | 25:37.20 | 0:47.02 | 115295 | 118821
17 | 26:24.22 | 0:38.53 | 118822 | 121724
18 | 27:03.00 | 1:27.17 | 121725 | 128266
19 | 28:30.17 | 2:06.23 | 128267 | 137739
20 | 30:36.40 | 1:09.72 | 137740 | 142986
21 | 31:46.37 | 3:51.35 | 142987 | 160346
22 | 35:37.72 | 3:05.40 | 160347 | 174261
23 | 38:43.37 | 5:09.33 | 174262 | 197469
24 | 43:52.70 | 0:46.50 | 197470 | 200969
Track 1
Filename E:\My Torrents\Eyvind Kang\Theater Of Mineral Nades\Eyvind Kang - 01 - The Earth & The Moon.wav
Pre-gap length 0:00:02.00
Peak level 74.0 %
Track quality 100.0 %
Test CRC AE1AC879
Copy CRC AE1AC879
Track not present in AccurateRip database
Copy OK
Track 2
Filename E:\My Torrents\Eyvind Kang\Theater Of Mineral Nades\Eyvind Kang - 02 - Jewel Of The Nade.wav
Peak level 56.3 %
Track quality 100.0 %
Test CRC 305D2BA3
Copy CRC 305D2BA3
Track not present in AccurateRip database
Copy OK
Track 3
Filename E:\My Torrents\Eyvind Kang\Theater Of Mineral Nades\Eyvind Kang - 03 - Theory Of The Supreme Ones.wav
Peak level 32.8 %
Track quality 100.0 %
Test CRC 63375CF7
Copy CRC 63375CF7
Track not present in AccurateRip database
Copy OK
Track 4
Filename E:\My Torrents\Eyvind Kang\Theater Of Mineral Nades\Eyvind Kang - 04 - The Anointment.wav
Peak level 12.4 %
Track quality 100.0 %
Test CRC 2FAC3AD5
Copy CRC 2FAC3AD5
Track not present in AccurateRip database
Copy OK
Track 5
Filename E:\My Torrents\Eyvind Kang\Theater Of Mineral Nades\Eyvind Kang - 05 - Mineralia.wav
Peak level 70.8 %
Track quality 100.0 %
Test CRC 885364AA
Copy CRC 885364AA
Track not present in AccurateRip database
Copy OK
Track 6
Filename E:\My Torrents\Eyvind Kang\Theater Of Mineral Nades\Eyvind Kang - 06 - Pleasures Of The Nade.wav
Peak level 28.4 %
Track quality 99.8 %
Test CRC B2609184
Copy CRC B2609184
Track not present in AccurateRip database
Copy OK
Track 7
Filename E:\My Torrents\Eyvind Kang\Theater Of Mineral Nades\Eyvind Kang - 07 - Consensit Spiritus.wav
Peak level 41.2 %
Track quality 100.0 %
Test CRC B8314627
Copy CRC B8314627
Track not present in AccurateRip database
Copy OK
Track 8
Filename E:\My Torrents\Eyvind Kang\Theater Of Mineral Nades\Eyvind Kang - 08 - (If I Sing A Song) So Good It.wav
Peak level 69.3 %
Track quality 99.6 %
Test CRC A1ED5A17
Copy CRC A1ED5A17
Track not present in AccurateRip database
Copy OK
Track 9
Filename E:\My Torrents\Eyvind Kang\Theater Of Mineral Nades\Eyvind Kang - 09 - New Moon.wav
Peak level 60.0 %
Track quality 100.0 %
Test CRC 90943132
Copy CRC 90943132
Track not present in AccurateRip database
Copy OK
Track 10
Filename E:\My Torrents\Eyvind Kang\Theater Of Mineral Nades\Eyvind Kang - 10 - Suleiman.wav
Peak level 67.6 %
Track quality 100.0 %
Test CRC 174CF24E
Copy CRC 174CF24E
Track not present in AccurateRip database
Copy OK
Track 11
Filename E:\My Torrents\Eyvind Kang\Theater Of Mineral Nades\Eyvind Kang - 11 - Berdache.wav
Peak level 90.6 %
Track quality 100.0 %
Test CRC C4468D13
Copy CRC C4468D13
Track not present in AccurateRip database
Copy OK
Track 12
Filename E:\My Torrents\Eyvind Kang\Theater Of Mineral Nades\Eyvind Kang - 12 - Moon.wav
Peak level 62.9 %
Track quality 100.0 %
Test CRC 6835C1E7
Copy CRC 6835C1E7
Track not present in AccurateRip database
Copy OK
Track 13
Filename E:\My Torrents\Eyvind Kang\Theater Of Mineral Nades\Eyvind Kang - 13 - Mercury.wav
Peak level 59.2 %
Track quality 100.0 %
Test CRC CEA61F8B
Copy CRC CEA61F8B
Track not present in AccurateRip database
Copy OK
Track 14
Filename E:\My Torrents\Eyvind Kang\Theater Of Mineral Nades\Eyvind Kang - 14 - The Curse.wav
Peak level 56.7 %
Track quality 100.0 %
Test CRC A2AEFABE
Copy CRC A2AEFABE
Track not present in AccurateRip database
Copy OK
Track 15
Filename E:\My Torrents\Eyvind Kang\Theater Of Mineral Nades\Eyvind Kang - 15 - Landvaettir.wav
Peak level 99.6 %
Track quality 100.0 %
Test CRC 8271002F
Copy CRC 8271002F
Track not present in AccurateRip database
Copy OK
Track 16
Filename E:\My Torrents\Eyvind Kang\Theater Of Mineral Nades\Eyvind Kang - 16 - Fate Is Sealed.wav
Peak level 72.7 %
Track quality 100.0 %
Test CRC C88956A9
Copy CRC C88956A9
Track not present in AccurateRip database
Copy OK
Track 17
Filename E:\My Torrents\Eyvind Kang\Theater Of Mineral Nades\Eyvind Kang - 17 - Private Misery.wav
Peak level 57.1 %
Track quality 100.0 %
Test CRC 883483FD
Copy CRC 883483FD
Track not present in AccurateRip database
Copy OK
Track 18
Filename E:\My Torrents\Eyvind Kang\Theater Of Mineral Nades\Eyvind Kang - 18 - Lost Souls.wav
Peak level 60.5 %
Track quality 100.0 %
Test CRC 0B8ED7E9
Copy CRC 0B8ED7E9
Track not present in AccurateRip database
Copy OK
Track 19
Filename E:\My Torrents\Eyvind Kang\Theater Of Mineral Nades\Eyvind Kang - 19 - Ghost Dance.wav
Peak level 57.1 %
Track quality 100.0 %
Test CRC 4677A97D
Copy CRC 4677A97D
Track not present in AccurateRip database
Copy OK
Track 20
Filename E:\My Torrents\Eyvind Kang\Theater Of Mineral Nades\Eyvind Kang - 20 - Lost Love.wav
Peak level 31.3 %
Track quality 100.0 %
Test CRC 9FDBCE8E
Copy CRC 9FDBCE8E
Track not present in AccurateRip database
Copy OK
Track 21
Filename E:\My Torrents\Eyvind Kang\Theater Of Mineral Nades\Eyvind Kang - 21 - Lover Not A Hater.wav
Peak level 68.9 %
Track quality 100.0 %
Test CRC 81169AB2
Copy CRC 81169AB2
Track not present in AccurateRip database
Copy OK
Track 22
Filename E:\My Torrents\Eyvind Kang\Theater Of Mineral Nades\Eyvind Kang - 22 - Mystic Nade.wav
Peak level 81.7 %
Track quality 99.7 %
Test CRC F628EEB7
Copy CRC F628EEB7
Track not present in AccurateRip database
Copy OK
Track 23
Filename E:\My Torrents\Eyvind Kang\Theater Of Mineral Nades\Eyvind Kang - 23 - Mary Of Magdalen.wav
Peak level 70.5 %
Track quality 100.0 %
Test CRC 524C9299
Copy CRC 524C9299
Track not present in AccurateRip database
Copy OK
Track 24
Filename E:\My Torrents\Eyvind Kang\Theater Of Mineral Nades\Eyvind Kang - 24 - Jewel Of The Nade (Reprise).wav
Peak level 11.2 %
Track quality 100.0 %
Test CRC 18C9EB90
Copy CRC 18C9EB90
Track not present in AccurateRip database
Copy OK
None of the tracks are present in the AccurateRip database
No errors occurred
End of status report
 
Tzadik
Eyvind Kang has one of the strangest musical minds on the scene today. His first release 7 NADEs was on many "Best 10" lists of 1996 and this second installment of his "NADEs" series is, as one would expect, something completely different. Medieval crumhorns, ecstatic arrangements, lilting melodies, unusual concepts and, of course, Eyvind's virtuosic violin stylings. This epic work, a year and a half in the making, is Kang's personal take on "East" and "West." Theater Of Mineral NADEs is Kang's Sgt. Pepper's. Destined to become one of the most important records of the year.
Any questions -> support@pro-jazz.com. По всем вопросам пишите -> support@pro-jazz.com
07:50
218
Нет комментариев. Ваш будет первым!