Поиск

(Free Jazz, Free Improvisation) [CD] Rob Brown Quartet (Joe Morris, Luther Gray, Steve Swell) - Radiant Pools - 2005, FLAC (tracks+.cue), lossless

(Free Jazz, Free Improvisation) [CD] Rob Brown Quartet (Joe Morris, Luther Gray, Steve Swell) - Radiant Pools - 2005, FLAC (tracks+.cue), lossless
Треклист:
Rob Brown Quartet / Radiant Pools
Жанр: Free Jazz, Free Improvisation
Носитель: CD
Страна-производитель диска (релиза): France
Год издания: 2005
Издатель (лейбл): RogueArt
Номер по каталогу: ROG-0002
Аудиокодек: FLAC (*.flac)
Тип рипа: tracks+.cue
Битрейт аудио: lossless
Продолжительность: 57:41
Источник (релизер): cd
Наличие сканов в содержимом раздачи: нет
Треклист:
1. Boxed Set (6:32)
2. Semantics - 1 (9:51)
3. Out Of The Lurch (5:35)
4. Radiant Pools (7:40)
5. King Cobra (8:48)
6. Semantics - 2 (9:27)
7. Swarm Village (9:41)
 
Лог создания рипа
Exact Audio Copy V1.0 beta 3 from 29. August 2011
EAC extraction logfile from 11. February 2015, 12:21
Rob Brown Quartet / Radiant Pools
Used drive : ASUS DRW-24F1ST a Adapter: 0 ID: 0
Read mode : Secure
Utilize accurate stream : Yes
Defeat audio cache : Yes
Make use of C2 pointers : No
Read offset correction : 6
Overread into Lead-In and Lead-Out : No
Fill up missing offset samples with silence : Yes
Delete leading and trailing silent blocks : No
Null samples used in CRC calculations : Yes
Used interface : Native Win32 interface for Win NT & 2000
Gap handling : Appended to previous track
Used output format : User Defined Encoder
Selected bitrate : 320 kBit/s
Quality : High
Add ID3 tag : No
Command line compressor : D:\Programs\Exact Audio Copy\Flac\flac.exe
Additional command line options : -V -8 -T "Genre=%genre%" -T "Artist=%artist%" -T "Title=%title%" -T "Album=%albumtitle%" -T "Date=%year%" -T "Tracknumber=%tracknr%" -T "Comment=%comment%" %source%
TOC of the extracted CD
Track | Start | Length | Start sector | End sector
---------------------------------------------------------
1 | 0:00.00 | 6:31.36 | 0 | 29360
2 | 6:31.36 | 9:51.40 | 29361 | 73725
3 | 16:23.01 | 5:37.26 | 73726 | 99026
4 | 22:00.27 | 7:41.33 | 99027 | 133634
5 | 29:41.60 | 8:48.30 | 133635 | 173264
6 | 38:30.15 | 9:30.68 | 173265 | 216082
7 | 48:01.08 | 9:40.48 | 216083 | 259630
Track 1
Filename D:\EAC\01 Boxed Set.wav
Pre-gap length 0:00:02.00
Peak level 97.7 %
Extraction speed 4.9 X
Track quality 100.0 %
Test CRC 06CFBC23
Copy CRC 06CFBC23
Copy OK
Track 2
Filename D:\EAC\02 Semantics-1.wav
Pre-gap length 0:00:00.55
Peak level 56.9 %
Extraction speed 6.0 X
Track quality 100.0 %
Test CRC B8E27D6C
Copy CRC B8E27D6C
Copy OK
Track 3
Filename D:\EAC\03 Out Of The Lurch.wav
Peak level 97.7 %
Extraction speed 6.5 X
Track quality 100.0 %
Test CRC 1CB7ECF6
Copy CRC 1CB7ECF6
Copy OK
Track 4
Filename D:\EAC\04 Radiant Pools.wav
Pre-gap length 0:00:01.46
Peak level 97.7 %
Extraction speed 6.7 X
Track quality 99.9 %
Test CRC 7A1CAB6D
Copy CRC 7A1CAB6D
Copy OK
Track 5
Filename D:\EAC\05 King Cobra.wav
Pre-gap length 0:00:00.32
Peak level 97.7 %
Extraction speed 7.9 X
Track quality 100.0 %
Test CRC 058AF620
Copy CRC 058AF620
Copy OK
Track 6
Filename D:\EAC\06 Semantics-2.wav
Peak level 60.1 %
Extraction speed 8.6 X
Track quality 100.0 %
Test CRC 5E4A1E2E
Copy CRC 5E4A1E2E
Copy OK
Track 7
Filename D:\EAC\07 Swarm Village.wav
Pre-gap length 0:00:00.40
Peak level 97.7 %
Extraction speed 8.6 X
Track quality 99.9 %
Test CRC 358584D7
Copy CRC 358584D7
Copy OK
No errors occurred
End of status report
==== Log checksum 536E46EEC0385E8A7141851B26C1EDD1266140001CEF34D7F2CD4FB402444DBE ====
 
Содержание индексной карты (.CUE)
REM GENRE Jazz
REM DATE 2005
REM DISCID 5F0D8507
REM COMMENT "ExactAudioCopy v1.0b3"
PERFORMER "Rob Brown Quartet"
TITLE "Radiant Pools"
FILE "01 Boxed Set.wav" WAVE
TRACK 01 AUDIO
TITLE "Boxed Set"
PERFORMER "Rob Brown Quartet"
INDEX 01 00:00:00
TRACK 02 AUDIO
TITLE "Semantics-1"
PERFORMER "Rob Brown Quartet"
INDEX 00 06:30:56
FILE "02 Semantics-1.wav" WAVE
INDEX 01 00:00:00
FILE "03 Out Of The Lurch.wav" WAVE
TRACK 03 AUDIO
TITLE "Out Of The Lurch"
PERFORMER "Rob Brown Quartet"
INDEX 01 00:00:00
TRACK 04 AUDIO
TITLE "Radiant Pools"
PERFORMER "Rob Brown Quartet"
INDEX 00 05:35:55
FILE "04 Radiant Pools.wav" WAVE
INDEX 01 00:00:00
TRACK 05 AUDIO
TITLE "King Cobra"
PERFORMER "Rob Brown Quartet"
INDEX 00 07:41:01
FILE "05 King Cobra.wav" WAVE
INDEX 01 00:00:00
FILE "06 Semantics-2.wav" WAVE
TRACK 06 AUDIO
TITLE "Semantics-2"
PERFORMER "Rob Brown Quartet"
INDEX 01 00:00:00
TRACK 07 AUDIO
TITLE "Swarm Village"
PERFORMER "Rob Brown Quartet"
INDEX 00 09:30:28
FILE "07 Swarm Village.wav" WAVE
INDEX 01 00:00:00
Доп. информация: Recorded on 13 July 2004 at Peter Karl Audio Services Studio, Brooklyn, NY.
 
Об альбоме (сборнике)
The French RogueArt label has published a wonderful series of modern jazz in the past frew years, including work by Hamid Drake, Malachi Favors, Roscoe Mitchel. And also this "Radiant Pools" by Rob Brown (sax) with Steve Swell (trombone), Joe Morris (bass) and Luther Gray (drums). The first piece is uptempo, pushed forward by bass and drums, with excellent solos by Swell and Brown. Then comes "Semantics 1", a more abstract and contemplative piece, with great interplay of Morris on arco, and with the sax and trombone that seek and elicit tones and sounds from eachother like a love dance between two doves. The same concept returns in "Semantics 2" later on the CD, with Morris on flute. "Out Of The Lurch" is more freebop, with a solidly anchored rhythm and a clearly delineated theme. "Radiant Pools" starts with a minute-long unisono of sax and trombone, moving away and coming back again. Halfway the piece, Morris's arco enters the game. The most beautiful piece is King Cobra, a composition by Joe Morris (also to be found on his "Beautiful Existence") which is slightly funky and because of the sheer beauty of the melody brings up the best out of the musicians. The overal space offered by the music on this album allows the musicians to demonstrate the breadth of their technical range and knowledge of jazz in all its aspects. Great.
 
Состав
Alto Saxophone, Flute, Composed By – Rob Brown
Double Bass – Joe Morris
Drums – Luther Gray
Trombone – Steve Swell
08:18
285
Нет комментариев. Ваш будет первым!