Вы используете незарегистрированную версию компонента "Вкладки"!

Поиск

(Free Jazz, Free Improvisation) [CD] Nels Cline / Wally Shoup / Chris Corsano ‎ - Immolation / Immersion - 2005, FLAC (tracks+.cue), lossless

(Free Jazz, Free Improvisation) [CD] Nels Cline / Wally Shoup / Chris Corsano ‎ - Immolation / Immersion - 2005, FLAC (tracks+.cue), lossless
Треклист:
Nels Cline, Wally Shoup, Chris Corsano ‎ - Immolation / Immersion
Жанр: Free Jazz, Free Improvisation
Носитель: CD
Страна-производитель диска: US
Год издания: 2005
Издатель (лейбл): Strange Attractors Audio House
Номер по каталогу: SAAH039
Аудиокодек: FLAC (*.flac)
Тип рипа: tracks+.cue
Битрейт аудио: lossless
Продолжительность: 54:34
Источник (релизер): whatcd
Наличие сканов в содержимом раздачи: да
Треклист:
1 Lake Of Fire Memories 2:28
2 Immolation / Immersion 28:03
3 Minus Mint 4:09
4 Beard Of Pine 13:05
5 Ghost Bell Canto 6:24
 
Лог создания рипа
Exact Audio Copy V0.99 prebeta 4 from 23. January 2008
EAC extraction logfile from 7. July 2009, 20:22
Nels Cline, Wally Shoup & Chris Corsano / Immolation / Immersion
Used drive : Optiarc DVD RW AD-7200A Adapter: 1 ID: 0
Read mode : Secure
Utilize accurate stream : Yes
Defeat audio cache : Yes
Make use of C2 pointers : No
Read offset correction : 48
Overread into Lead-In and Lead-Out : No
Fill up missing offset samples with silence : Yes
Delete leading and trailing silent blocks : No
Null samples used in CRC calculations : Yes
Used interface : Native Win32 interface for Win NT & 2000
Gap handling : Appended to previous track
Used output format : User Defined Encoder
Selected bitrate : 768 kBit/s
Quality : High
Add ID3 tag : No
Command line compressor : C:\Program Files\Exact Audio Copy\Flac\flac.exe
Additional command line options : -V -8 -T "artist=%a" -T "title=%t" -T "album=%g" -T "date=%y" -T "tracknumber=%n" -T "genre=%m" %s
TOC of the extracted CD
Track | Start | Length | Start sector | End sector
---------------------------------------------------------
1 | 0:00.00 | 2:32.47 | 0 | 11446
2 | 2:32.47 | 28:10.54 | 11447 | 138250
3 | 30:43.26 | 4:15.06 | 138251 | 157381
4 | 34:58.32 | 13:12.36 | 157382 | 216817
5 | 48:10.68 | 6:24.06 | 216818 | 245623
Track 1
Filename C:\Documents and Settings\Антон\Рабочий стол\Nels Cline, Wally Shoup & Chris Corsano - Immolation - Immersion (2005) [FLAC]\01 - Lake of Fire Memories.wav
Pre-gap length 0:00:02.00
Peak level 91.3 %
Track quality 100.0 %
Copy CRC 7E68A2AB
Copy OK
Track 2
Filename C:\Documents and Settings\Антон\Рабочий стол\Nels Cline, Wally Shoup & Chris Corsano - Immolation - Immersion (2005) [FLAC]\02 - Immolation , Immersion.wav
Pre-gap length 0:00:04.00
Peak level 99.3 %
Track quality 100.0 %
Copy CRC 4CE74420
Copy OK
Track 3
Filename C:\Documents and Settings\Антон\Рабочий стол\Nels Cline, Wally Shoup & Chris Corsano - Immolation - Immersion (2005) [FLAC]\03 - Minus Mint.wav
Pre-gap length 0:00:07.00
Peak level 91.2 %
Track quality 100.0 %
Copy CRC 4E6CCC58
Copy OK
Track 4
Filename C:\Documents and Settings\Антон\Рабочий стол\Nels Cline, Wally Shoup & Chris Corsano - Immolation - Immersion (2005) [FLAC]\04 - Beard of Pine.wav
Pre-gap length 0:00:06.00
Peak level 96.2 %
Track quality 100.0 %
Copy CRC A33E8181
Copy OK
Track 5
Filename C:\Documents and Settings\Антон\Рабочий стол\Nels Cline, Wally Shoup & Chris Corsano - Immolation - Immersion (2005) [FLAC]\05 - Ghost Bell Canto.wav
Pre-gap length 0:00:07.00
Peak level 89.6 %
Track quality 100.0 %
Copy CRC 2CA21CC2
Copy OK
No errors occurred
End of status report
 
Содержание индексной карты (.CUE)
REM GENRE Jazz
REM DATE 2005
REM DISCID 360CCA05
REM COMMENT "ExactAudioCopy v0.99pb4"
PERFORMER "Nels Cline, Wally Shoup & Chris Corsano"
TITLE "Immolation / Immersion"
FILE "01 - Lake of Fire Memories.wav" WAVE
TRACK 01 AUDIO
TITLE "Lake of Fire Memories"
PERFORMER "Nels Cline, Wally Shoup & Chris Corsano"
INDEX 01 00:00:00
TRACK 02 AUDIO
TITLE "Immolation / Immersion"
PERFORMER "Nels Cline, Wally Shoup & Chris Corsano"
INDEX 00 02:28:47
FILE "02 - Immolation , Immersion.wav" WAVE
INDEX 01 00:00:00
TRACK 03 AUDIO
TITLE "Minus Mint"
PERFORMER "Nels Cline, Wally Shoup & Chris Corsano"
INDEX 00 28:03:54
FILE "03 - Minus Mint.wav" WAVE
INDEX 01 00:00:00
TRACK 04 AUDIO
TITLE "Beard of Pine"
PERFORMER "Nels Cline, Wally Shoup & Chris Corsano"
INDEX 00 04:09:06
FILE "04 - Beard of Pine.wav" WAVE
INDEX 01 00:00:00
TRACK 05 AUDIO
TITLE "Ghost Bell Canto"
PERFORMER "Nels Cline, Wally Shoup & Chris Corsano"
INDEX 00 13:05:36
FILE "05 - Ghost Bell Canto.wav" WAVE
INDEX 01 00:00:00
Доп. информация: Recorded April 5, 2005 and mixed later at Catasonic, Los Angeles.
 
Состав
Alto Saxophone, Cover [Front & Back Cover Art] – Wally Shoup
Drums, Performer, Electronics [Wires] – Chris Corsano
Electric Guitar, Effects – Nels Cline
По всем вопросам пишите личное сообщение пользователю M0p94ok.
06:19
128
Нет комментариев. Ваш будет первым!