Вы используете незарегистрированную версию компонента "Вкладки"!

Поиск

(Free Jazz, Contemporary Jazz, Free Improvisation) [CD] Stefano Battaglia, Tony Oxley - Explore - 1990, FLAC (tracks+.cue), lossless

(Free Jazz, Contemporary Jazz, Free Improvisation) [CD] Stefano Battaglia, Tony Oxley - Explore - 1990, FLAC (tracks+.cue), lossless
Треклист:
Stefano Battaglia - Tony Oxley / Explore
Жанр: Free Jazz, Contemporary Jazz, Free Improvisation
Носитель: CD
Страна-производитель диска: Italy
Год издания: 1990
Издатель (лейбл): Splasc(h) Records
Номер по каталогу: CD H 304-2
Аудиокодек: FLAC (*.flac)
Тип рипа: tracks+.cue
Битрейт аудио: lossless
Продолжительность: 57:23
Источник (релизер): whatcd (cifelius)
Наличие сканов в содержимом раздачи: да
Треклист:
1 Moonstone 3:35
2 Explore 1 4:59
3 Hits, Breaks And Blocks 1:19
4 South Africa February Dance 4:44
5 Uneven 2:34
6 Rapture 4:45
7 Jar 4:38
8 Rta 8:42
(Piano [Prepared] – Stefano Battaglia)
9 Chant Of The Ocean Sirens (Mana Of The Sea) 5:15
(Gong – Tony Oxley)
10 Mr. Hooks Beats The Band 6:45
11 Amethyst 3:13
12 Still Rain 3:27
13 Explore 2 3:27
 
Лог создания рипа
Exact Audio Copy V1.0 beta 2 from 29. April 2011
EAC extraction logfile from 11. October 2014, 14:27
Stefano Battaglia, Tony Oxley / Explore
Used drive : HL-DT-STDVDRAM GH24NS50 Adapter: 0 ID: 0
Read mode : Secure
Utilize accurate stream : Yes
Defeat audio cache : Yes
Make use of C2 pointers : No
Read offset correction : 667
Overread into Lead-In and Lead-Out : No
Fill up missing offset samples with silence : Yes
Delete leading and trailing silent blocks : No
Null samples used in CRC calculations : Yes
Used interface : Installed external ASPI interface
Gap handling : Appended to previous track
Used output format : User Defined Encoder
Selected bitrate : 768 kBit/s
Quality : High
Add ID3 tag : No
Command line compressor : E:\Programmi\Exact Audio Copy\Flac\flac.exe
Additional command line options : -8 -V -T "ARTIST=%artist%" -T "TITLE=%title%" -T "ALBUM=%albumtitle%" -T "DATE=%year%" -T "TRACKNUMBER=%tracknr%" -T "TOTALTRACKS=%numtracks%" -T "GENRE=%genre%" -T "ALBUMARTIST=%albumartist%" -T "ALBUM ARTIST=%albumartist%
TOC of the extracted CD
Track | Start | Length | Start sector | End sector
---------------------------------------------------------
1 | 0:00.33 | 3:34.70 | 33 | 16152
2 | 3:35.28 | 4:58.52 | 16153 | 38554
3 | 8:34.05 | 1:19.00 | 38555 | 44479
4 | 9:53.05 | 4:44.40 | 44480 | 65819
5 | 14:37.45 | 2:34.38 | 65820 | 77407
6 | 17:12.08 | 4:44.62 | 77408 | 98769
7 | 21:56.70 | 4:38.13 | 98770 | 119632
8 | 26:35.08 | 8:42.25 | 119633 | 158807
9 | 35:17.33 | 5:15.42 | 158808 | 182474
10 | 40:33.00 | 6:44.45 | 182475 | 212819
11 | 47:17.45 | 3:12.63 | 212820 | 227282
12 | 50:30.33 | 3:26.45 | 227283 | 242777
13 | 53:57.03 | 3:27.30 | 242778 | 258332
Track 1
Filename C:\Documents and Settings\user\Desktop\Stefano Battaglia, Tony Oxley - Explore (1990) [FLAC] {Splasch}\01 - Moonstone.wav
Pre-gap length 0:00:02.33
Peak level 93.4 %
Extraction speed 1.1 X
Track quality 100.0 %
Test CRC 608FBCAE
Copy CRC 608FBCAE
Accurately ripped (confidence 1) [408AA45A] (AR v2)
Copy OK
Track 2
Filename C:\Documents and Settings\user\Desktop\Stefano Battaglia, Tony Oxley - Explore (1990) [FLAC] {Splasch}\02 - Explore 1.wav
Peak level 100.0 %
Extraction speed 1.3 X
Track quality 100.0 %
Test CRC BD2533AE
Copy CRC BD2533AE
Accurately ripped (confidence 1) [3A9FB32C] (AR v2)
Copy OK
Track 3
Filename C:\Documents and Settings\user\Desktop\Stefano Battaglia, Tony Oxley - Explore (1990) [FLAC] {Splasch}\03 - Hits, Breaks and Blocks.wav
Peak level 93.7 %
Extraction speed 0.8 X
Track quality 99.8 %
Test CRC 7E743030
Copy CRC 7E743030
Accurately ripped (confidence 1) [B2FF0666] (AR v2)
Copy OK
Track 4
Filename C:\Documents and Settings\user\Desktop\Stefano Battaglia, Tony Oxley - Explore (1990) [FLAC] {Splasch}\04 - South Africa February Dance.wav
Peak level 96.0 %
Extraction speed 1.3 X
Track quality 99.9 %
Test CRC 40F24A06
Copy CRC 40F24A06
Accurately ripped (confidence 1) [916FF741] (AR v2)
Copy OK
Track 5
Filename C:\Documents and Settings\user\Desktop\Stefano Battaglia, Tony Oxley - Explore (1990) [FLAC] {Splasch}\05 - Uneven.wav
Peak level 95.8 %
Extraction speed 1.5 X
Track quality 100.0 %
Test CRC ADA00FB2
Copy CRC ADA00FB2
Accurately ripped (confidence 1) [91B6D9A4] (AR v2)
Copy OK
Track 6
Filename C:\Documents and Settings\user\Desktop\Stefano Battaglia, Tony Oxley - Explore (1990) [FLAC] {Splasch}\06 - Rapture.wav
Peak level 96.0 %
Extraction speed 1.5 X
Track quality 99.9 %
Test CRC 2E818696
Copy CRC 2E818696
Accurately ripped (confidence 1) [3230D6CD] (AR v2)
Copy OK
Track 7
Filename C:\Documents and Settings\user\Desktop\Stefano Battaglia, Tony Oxley - Explore (1990) [FLAC] {Splasch}\07 - Jar.wav
Peak level 93.4 %
Extraction speed 1.8 X
Track quality 100.0 %
Test CRC 10D2EEA0
Copy CRC 10D2EEA0
Accurately ripped (confidence 1) [62BFED88] (AR v2)
Copy OK
Track 8
Filename C:\Documents and Settings\user\Desktop\Stefano Battaglia, Tony Oxley - Explore (1990) [FLAC] {Splasch}\08 - RTA.wav
Peak level 92.2 %
Extraction speed 2.1 X
Track quality 100.0 %
Test CRC CF3DF806
Copy CRC CF3DF806
Accurately ripped (confidence 1) [9FBA1525] (AR v2)
Copy OK
Track 9
Filename C:\Documents and Settings\user\Desktop\Stefano Battaglia, Tony Oxley - Explore (1990) [FLAC] {Splasch}\09 - Chant of the Ocean Sirens.wav
Peak level 75.9 %
Extraction speed 2.2 X
Track quality 100.0 %
Test CRC 16CAC196
Copy CRC 16CAC196
Accurately ripped (confidence 1) [9C4B2F55] (AR v2)
Copy OK
Track 10
Filename C:\Documents and Settings\user\Desktop\Stefano Battaglia, Tony Oxley - Explore (1990) [FLAC] {Splasch}\10 - Mr. Hooks Beats the Band.wav
Peak level 82.7 %
Extraction speed 2.3 X
Track quality 100.0 %
Test CRC 6878D294
Copy CRC 6878D294
Accurately ripped (confidence 1) [5A326B6F] (AR v2)
Copy OK
Track 11
Filename C:\Documents and Settings\user\Desktop\Stefano Battaglia, Tony Oxley - Explore (1990) [FLAC] {Splasch}\11 - Amethyst.wav
Peak level 74.3 %
Extraction speed 2.2 X
Track quality 100.0 %
Test CRC 3E2C3A81
Copy CRC 3E2C3A81
Accurately ripped (confidence 1) [7C52CFE1] (AR v2)
Copy OK
Track 12
Filename C:\Documents and Settings\user\Desktop\Stefano Battaglia, Tony Oxley - Explore (1990) [FLAC] {Splasch}\12 - Still Rain.wav
Peak level 92.1 %
Extraction speed 2.3 X
Track quality 100.0 %
Test CRC 2331BF98
Copy CRC 2331BF98
Accurately ripped (confidence 1) [FCBCFC71] (AR v2)
Copy OK
Track 13
Filename C:\Documents and Settings\user\Desktop\Stefano Battaglia, Tony Oxley - Explore (1990) [FLAC] {Splasch}\13 - Explore 2.wav
Peak level 62.8 %
Extraction speed 2.3 X
Track quality 100.0 %
Test CRC 553D9138
Copy CRC 553D9138
Accurately ripped (confidence 1) [581F53FC] (AR v2)
Copy OK
All tracks accurately ripped
No errors occurred
End of status report
==== Log checksum CFB18C8B8C1F3B1B2B4D754B426CFE74490C15C9F2B61FC60DACC669C294AC01 ====
 
Содержание индексной карты (.CUE)
REM GENRE Jazz
REM DATE 1990
REM DISCID B80D740D
REM COMMENT "ExactAudioCopy v1.0b2"
PERFORMER "Stefano Battaglia, Tony Oxley"
TITLE "Explore"
FILE "01 - Moonstone.wav" WAVE
TRACK 01 AUDIO
TITLE "Moonstone"
PERFORMER "Stefano Battaglia, Tony Oxley"
FLAGS PRE
PREGAP 00:00:33
INDEX 01 00:00:00
FILE "02 - Explore 1.wav" WAVE
TRACK 02 AUDIO
TITLE "Explore 1"
PERFORMER "Stefano Battaglia, Tony Oxley"
FLAGS PRE
INDEX 01 00:00:00
FILE "03 - Hits, Breaks and Blocks.wav" WAVE
TRACK 03 AUDIO
TITLE "Hits, Breaks and Blocks"
PERFORMER "Stefano Battaglia, Tony Oxley"
FLAGS PRE
INDEX 01 00:00:00
FILE "04 - South Africa February Dance.wav" WAVE
TRACK 04 AUDIO
TITLE "South Africa February Dance"
PERFORMER "Stefano Battaglia, Tony Oxley"
FLAGS PRE
INDEX 01 00:00:00
FILE "05 - Uneven.wav" WAVE
TRACK 05 AUDIO
TITLE "Uneven"
PERFORMER "Stefano Battaglia, Tony Oxley"
FLAGS PRE
INDEX 01 00:00:00
FILE "06 - Rapture.wav" WAVE
TRACK 06 AUDIO
TITLE "Rapture"
PERFORMER "Stefano Battaglia, Tony Oxley"
FLAGS PRE
INDEX 01 00:00:00
FILE "07 - Jar.wav" WAVE
TRACK 07 AUDIO
TITLE "Jar"
PERFORMER "Stefano Battaglia, Tony Oxley"
FLAGS PRE
INDEX 01 00:00:00
FILE "08 - RTA.wav" WAVE
TRACK 08 AUDIO
TITLE "RTA"
PERFORMER "Stefano Battaglia, Tony Oxley"
FLAGS PRE
INDEX 01 00:00:00
FILE "09 - Chant of the Ocean Sirens.wav" WAVE
TRACK 09 AUDIO
TITLE "Chant of the Ocean Sirens "
PERFORMER "Stefano Battaglia, Tony Oxley"
FLAGS PRE
INDEX 01 00:00:00
FILE "10 - Mr. Hooks Beats the Band.wav" WAVE
TRACK 10 AUDIO
TITLE "Mr. Hooks Beats the Band"
PERFORMER "Stefano Battaglia, Tony Oxley"
FLAGS PRE
INDEX 01 00:00:00
FILE "11 - Amethyst.wav" WAVE
TRACK 11 AUDIO
TITLE "Amethyst"
PERFORMER "Stefano Battaglia, Tony Oxley"
FLAGS PRE
INDEX 01 00:00:00
FILE "12 - Still Rain.wav" WAVE
TRACK 12 AUDIO
TITLE "Still Rain"
PERFORMER "Stefano Battaglia, Tony Oxley"
FLAGS PRE
INDEX 01 00:00:00
FILE "13 - Explore 2.wav" WAVE
TRACK 13 AUDIO
TITLE "Explore 2"
PERFORMER "Stefano Battaglia, Tony Oxley"
FLAGS PRE
INDEX 01 00:00:00
Доп. информация: Recorded at Barigozzi Studio, Milan, on Feb. 11, 1990
 
Об альбоме (сборнике)
This is an interesting title in the wake of the notion that Stefano Battaglia composed most of these pieces and has performed them on earlier recordings -- both solo and with various groups -- and that Tony Oxley is such a renowned improviser. Regardless of the circumstances surrounding this music, all listeners have is this music, and this meeting is as awe-inspiring on record as it is on paper. Battaglia is Italy's premier new jazz pianist. Deeply influenced by the pointillistic chromaticism of Paul Bley, Battaglia is at home playing in both vanguard and "straight" settings. Here, listeners get his lyrical side for the most part, relying on Oxley as a percussionist more than as a drummer. Of the 13 selections on this set, Battaglia and Oxley collaborated on only two. So Oxley is free to roam, holding up whatever light stick he wishes to the prism of Battaglia's timbral panorama and illustrating it any way he wishes. The clear standout tracks here are the more experimentally arranged ones such as "RTA," with Battaglia playing both the inside and the outside of the piano simultaneously, improvising on a melody he wrote based on a folk song from Sardinia. It's all different shades of D minor, and Oxley, delighted by the turn of the strings being plucked, uses rattles and shakers on his cymbals and his skins while Battaglia rumbles across the middle register inverting each of the sequential chords and turning them inside out with two pedals down the entire time. Also notable is the joint composition in two parts that serves as the title work, where Oxley assumes his role as one of a melodist along with Battaglia, who opens up shimmering harmonic vistas to create room for the drummer's shards of bells, sticks on wood, rattles, etc. There isn't a weak or unbeautiful moment on Explore; it is the mature work of two grand masters of modern music.
 
Состав
Drums – Tony Oxley
Piano, Percussion – Stefano Battaglia
По всем вопросам пишите личное сообщение пользователю M0p94ok.
06:18
154
Нет комментариев. Ваш будет первым!