Вы используете незарегистрированную версию компонента "Вкладки"!

Поиск

(Free Jazz, Free Improvisation) [CD] Kaoru Abe (阿部薫) - Blowin' in the Wind (風に吹かれて) - 1971, FLAC (tracks+.cue), lossless

(Free Jazz, Free Improvisation) [CD] Kaoru Abe (阿部薫) - Blowin' in the Wind (風に吹かれて) - 1971, FLAC (tracks+.cue), lossless
Треклист:
Kaoru Abe (阿部薫) - Blowin' in the Wind (風に吹かれて) 1971
Жанр: Free Jazz, Free Improvisation
Носитель: CD
Страна-производитель диска: Japan
Год издания: 2003
Издатель (лейбл): Polystar Jazz Library
Аудиокодек: FLAC (*.flac)
Тип рипа: tracks+.cue
Битрейт аудио: lossless
Продолжительность: MTCJ-5513
Источник (релизер): рип мой. диск тоже.
Наличие сканов в содержимом раздачи: да, фото
Треклист:
01. Alto Saxophone Solo Improvisation 1 (1:01)
02. Alto Saxophone Solo Improvisation 2 (10:58)
03. Acacia no Ame ga Yamutoki (Bass Clarinet Solo) (18:34)
04. Blowin' in the Wind / Hanayome Ningyo (Bass Clarinet Solo) (18:41)
 
Лог создания рипа
Exact Audio Copy V1.0 beta 1 from 15. November 2010
EAC extraction logfile from 16. March 2014, 18:41
Kaoru Abe / Kaze ni Fukarete
Used drive : Optiarc DVD RW AD-7200A Adapter: 0 ID: 0
Read mode : Secure
Utilize accurate stream : Yes
Defeat audio cache : Yes
Make use of C2 pointers : No
Read offset correction : 48
Overread into Lead-In and Lead-Out : No
Fill up missing offset samples with silence : Yes
Delete leading and trailing silent blocks : No
Null samples used in CRC calculations : Yes
Used interface : Native Win32 interface for Win NT & 2000
Gap handling : Appended to previous track
Used output format : User Defined Encoder
Selected bitrate : 768 kBit/s
Quality : High
Add ID3 tag : No
Command line compressor : C:\Program Files\Exact Audio Copy\Flac\flac.exe
Additional command line options : -8 -V -T "ARTIST=%a" -T "TITLE=%t" -T "ALBUM=%g" -T "DATE=%y" -T "TRACKNUMBER=%n" -T "TOTALTRACKS=%x" -T "GENRE=%m" -T "ALBUMARTIST=%v" -T "ALBUM ARTIST=%v" -T "COMMENT=EAC Secure Mode, Test & Copy, AccurateRip, FLAC -8" %s
TOC of the extracted CD
Track | Start | Length | Start sector | End sector
---------------------------------------------------------
1 | 0:00.00 | 1:00.52 | 0 | 4551
2 | 1:00.52 | 10:58.05 | 4552 | 53906
3 | 11:58.57 | 18:34.30 | 53907 | 137486
4 | 30:33.12 | 18:40.55 | 137487 | 221541
Track 1
Filename D:\Kaoru Abe - KAZE NI FUKARETE (1971) [FLAC]\01 - Alto Saxophone Solo Improvisation 1.wav
Pre-gap length 0:00:02.00
Peak level 97.9 %
Extraction speed 8.6 X
Track quality 100.0 %
Test CRC 5820C1E3
Copy CRC 5820C1E3
Track not present in AccurateRip database
Copy OK
Track 2
Filename D:\Kaoru Abe - KAZE NI FUKARETE (1971) [FLAC]\02 - Alto Saxophone Solo Improvisation 2.wav
Pre-gap length 0:00:02.17
Peak level 97.9 %
Extraction speed 15.9 X
Track quality 100.0 %
Test CRC 9EDA165B
Copy CRC 9EDA165B
Track not present in AccurateRip database
Copy OK
Track 3
Filename D:\Kaoru Abe - KAZE NI FUKARETE (1971) [FLAC]\03 - Acacia no Ame ga Yamutoki (Bass Clarinet Solo).wav
Pre-gap length 0:00:03.50
Peak level 97.9 %
Extraction speed 20.5 X
Track quality 99.9 %
Test CRC 0C2E58F5
Copy CRC 0C2E58F5
Track not present in AccurateRip database
Copy OK
Track 4
Filename D:\Kaoru Abe - KAZE NI FUKARETE (1971) [FLAC]\04 - Blowin' in the Wind , Hanayome Ningyo (Bass Clarinet Solo).wav
Pre-gap length 0:00:02.35
Peak level 97.9 %
Extraction speed 25.2 X
Track quality 99.9 %
Test CRC F7E67CEB
Copy CRC F7E67CEB
Track not present in AccurateRip database
Copy OK
None of the tracks are present in the AccurateRip database
No errors occurred
End of status report
==== Log checksum 147B010248E6C634CA6A3391D7051552B7494F0AA69FAF8DA31D5E2078A040D3 ====
 
Содержание индексной карты (.CUE)
REM GENRE Jazz
REM DATE 1971
REM DISCID 240B8904
REM COMMENT "ExactAudioCopy v1.0b1"
PERFORMER "Kaoru Abe"
TITLE "Kaze ni Fukarete"
FILE "01 - Alto Saxophone Solo Improvisation 1.wav" WAVE
TRACK 01 AUDIO
TITLE "Alto Saxophone Solo Improvisation 1"
PERFORMER "Kaoru Abe"
INDEX 01 00:00:00
TRACK 02 AUDIO
TITLE "Alto Saxophone Solo Improvisation 2"
PERFORMER "Kaoru Abe"
INDEX 00 00:58:35
FILE "02 - Alto Saxophone Solo Improvisation 2.wav" WAVE
INDEX 01 00:00:00
TRACK 03 AUDIO
TITLE "Acacia no Ame ga Yamutoki (Bass Clarinet Solo)"
PERFORMER "Kaoru Abe"
INDEX 00 10:54:30
FILE "03 - Acacia no Ame ga Yamutoki (Bass Clarinet Solo).wav" WAVE
INDEX 01 00:00:00
TRACK 04 AUDIO
TITLE "Blowin' in the Wind / Hanayome Ningyo (Bass Clarinet Solo)"
PERFORMER "Kaoru Abe"
INDEX 00 18:31:70
FILE "04 - Blowin' in the Wind , Hanayome Ningyo (Bass Clarinet Solo).wav" WAVE
INDEX 01 00:00:00
 
Об альбоме (сборнике)
KAORU ABE Kaze Ni Fukarete CD [Tokuma] As historically illuminating as its two companion Tokuma titles, if a more problematic listen, Kaze Ni Fukarete (Blowing In The Wind) contains what one presumes is much of the remainder of the December 4 show at Akita University, one track from which ('After The Acacia Rain') of course appears on Kurai Nichiyobi. It starts with two solo alto improvs, one a cheeky run lasting less than a minute, the second a bit longer. Its eight or so minutes offer a teasingly brief glimpse at another side to Abe - he hints throughout in a tantalisingly sketchy way at a real stylistic departure, with well-paced periods of note enunciation, sprite tones and skilfully fleet streams. These brief interludes are gone just as suddenly as they are introduced, as Abe reverts to a more brute alto format in perverse fashion, improvising roughly on his archetypal theme before impatiently and abruptly concluding, leaving both ends of the track open, a recording as frustrating as it is revealing. More helpful is its successor, yet another version of 'After The Acacia Rain', this time played on bass clarinet. The three markedly different takes on the ballad presented by the Tokuma albums clearly demonstrate Abe's erratic relationship with the ballad, which seemed to change on a daily basis. This version serves as an amazing summation of his mixed feelings for this standard (and what it represented), a standard which, at this stage of his career, can plausibly be seen as his 'My Favourite Things'. Played literally within hours/minutes of the blatantly contrasting version on Kurai Nichiyobi, it here becomes an elongated catalogue of moods, beginning with the respectfully sombre, proceeding to gradual impatience and urgency, onto outright dislike and mockery, and all the way back again. It's remarkable for its yawning inter-note chasms - whereas Abe's typical alto style was to fill every available space as quickly as possible (and his bass clarinet style to fill space slowly), here he permits individual notes and sequential runs to soak up air and hang around in the balance before eventually following them up. In the ever-widening blank spaces of the more gaping sound-holes towards the end of the near 40-minute running time, it really sounds as though the piece will actually never end, and by its conclusion, Abe has stretched the sounds further apart than any other recording from this stage of his career, and has also presaged the playing style that he would later in his lfe come to adopt. Revelling as ever in the bass clarinet's natural full-bodied melodic potential, Abe intersperses passages of ruptural dissonance with increasing frequency and abrupt juxtaposition, all the while maintaining what come to be the piece's characteristic pauses, establishing a tug-of-war/discourse between the two forces which, 25 years on, plays like an analysis of his creative and technical methods. An astonishing recording, which places all Abe's other playing on the instrument in another light. It's followed by a medley of Robert Dylan's 'Blowing In The Wind' and the Japanese standard 'Hanayome Ningyo' ('Bride Doll') of annoyingly murky recording quality and short duration which nonetheless elaborates, however briefly, on its predecessor's suggestions, emphasising that the Tokuma titles ask as many questions as they answer. Attempting to reinstate lost history, by showing Abe to be a player of diversely broad style, method and technique by only just scratching the surface, they implicitly acknowledge that there exists much more that deserves to be unearthed just as much but which probably never will, writing large an emboldened ellipsis which, for those who choose to hear, reverberates with deafening loudness. -Nick (http://mysite.verizon.net/spin17/kaoru.html)
 
Состав
Music by Kaoru Abe (1, 2), Hideyuki Fujiwara (3), Bob Dylan ("Blowin' in the Wind"), and Haseo Sugiyama ("Hanayome Ningyo")
Kaoru Abe: alto saxophone (1, 2), bass clarinet (3, 4)
Доп. информация:
Recorded live at Akita University, Akita, December 4, 1971
Released in December 2003
Originally released in 1997 on WAX Records / Tokuma Japan Communications
Any questions -> support@pro-jazz.com. По всем вопросам пишите -> support@pro-jazz.com
00:16
178
Нет комментариев. Ваш будет первым!