Вы используете незарегистрированную версию компонента "Вкладки"!

Поиск

(Free Jazz, Free Improvisation) Brotzmann / Van Hove / Bennink - Balls - 2002 (1970), FLAC (tracks+.cue), lossless

Треклист:
Brötzmann / Van Hove / Bennink - Balls
Жанр: Free Jazz, Free Improvisation
Год выпуска диска: 2002 (1970)
Производитель диска: Atavistic (UMS233CD)
Источник: вот.сиди (occasional_luddite)
Аудио кодек: FLAC
Тип рипа: tracks+.cue
Битрейт аудио: lossless
Продолжительность: 54:44
Трэклист:
1. Balls 14:38
2. Garten 6:20
3. Filet Americain 8:22
4. De Daag Waarop Sipke Eindelijk Zijn Nagels Knipte, En Verder Alle Andere A Moten Voor Hem Openstonden I.C.P. 17 11:25
5. Untitled 1 8:59
6. Untitled 2 5:01
Peter Brötzmann tenor saxophone
Fred Van Hove piano
Han Bennink drums, percussion [gachi, shell], voice
 
Лог создания рипа
Exact Audio Copy V0.99 prebeta 5 from 4. May 2009
EAC extraction logfile from 21. June 2011, 16:14
Brotzmann/Van Hove/Bennink / Balls
Used drive : Optiarc DVD RW AD-7703S Adapter: 0 ID: 0
Read mode : Secure
Utilize accurate stream : Yes
Defeat audio cache : Yes
Make use of C2 pointers : No
Read offset correction : 48
Overread into Lead-In and Lead-Out : No
Fill up missing offset samples with silence : Yes
Delete leading and trailing silent blocks : No
Null samples used in CRC calculations : Yes
Used interface : Native Win32 interface for Win NT & 2000
Gap handling : Appended to previous track
Used output format : User Defined Encoder
Selected bitrate : 320 kBit/s
Quality : High
Add ID3 tag : No
Command line compressor : C:\Program Files (x86)\Exact Audio Copy\Flac\flac.exe
Additional command line options : -V -8 -T "artist=%a" -T "title=%t" -T "album=%g" -T "date=%y" -T "tracknumber=%n" -T "genre=%m" %s
TOC of the extracted CD
Track | Start | Length | Start sector | End sector
---------------------------------------------------------
1 | 0:01.00 | 14:37.68 | 75 | 65917
2 | 14:38.68 | 6:20.09 | 65918 | 94426
3 | 20:59.02 | 8:21.38 | 94427 | 132039
4 | 29:20.40 | 11:24.46 | 132040 | 183385
5 | 40:45.11 | 8:59.22 | 183386 | 223832
6 | 49:44.33 | 5:00.58 | 223833 | 246390
Track 1
Filename C:\EACrips\Brotzmann,Van Hove,Bennink - Balls (1970) - [FLAC]\01 - Balls.wav
Pre-gap length 0:00:03.00
Peak level 100.0 %
Track quality 100.0 %
Test CRC E5902901
Copy CRC E5902901
Accurately ripped (confidence 3) [2DD368DA]
Copy OK
Track 2
Filename C:\EACrips\Brotzmann,Van Hove,Bennink - Balls (1970) - [FLAC]\02 - Garten.wav
Pre-gap length 0:00:04.61
Peak level 95.4 %
Track quality 100.0 %
Test CRC 7C9D9E19
Copy CRC 7C9D9E19
Accurately ripped (confidence 3) [3240CFEC]
Copy OK
Track 3
Filename C:\EACrips\Brotzmann,Van Hove,Bennink - Balls (1970) - [FLAC]\03 - Filet Americain.wav
Pre-gap length 0:00:07.08
Peak level 92.1 %
Track quality 100.0 %
Test CRC 3E12A19C
Copy CRC 3E12A19C
Accurately ripped (confidence 3) [5504C06A]
Copy OK
Track 4
Filename C:\EACrips\Brotzmann,Van Hove,Bennink - Balls (1970) - [FLAC]\04 - De Daag Waarop Sipke Eindelijk Zijn Nagels Knipte, En Verder Alle Andere A Moten.wav
Pre-gap length 0:00:03.47
Peak level 92.6 %
Track quality 100.0 %
Test CRC 2378E3F4
Copy CRC 2378E3F4
Accurately ripped (confidence 3) [D85CFCEF]
Copy OK
Track 5
Filename C:\EACrips\Brotzmann,Van Hove,Bennink - Balls (1970) - [FLAC]\05 - Untitled 1.wav
Pre-gap length 0:00:10.68
Peak level 96.6 %
Track quality 100.0 %
Test CRC 16AF93FF
Copy CRC 16AF93FF
Accurately ripped (confidence 3) [7BD06640]
Copy OK
Track 6
Filename C:\EACrips\Brotzmann,Van Hove,Bennink - Balls (1970) - [FLAC]\06 - Untitled 2.wav
Pre-gap length 0:00:04.20
Peak level 74.4 %
Track quality 100.0 %
Test CRC FBF99C68
Copy CRC FBF99C68
Accurately ripped (confidence 3) [23C267AF]
Copy OK
All tracks accurately ripped
No errors occurred
End of status report
 
Содержание индексной карты (.CUE)
REM GENRE jazz
REM DATE 1970
REM DISCID 570CD406
REM COMMENT "ExactAudioCopy v0.99pb5"
PERFORMER "Brotzmann/Van Hove/Bennink"
TITLE "Balls"
FILE "01 - Balls.wav" WAVE
TRACK 01 AUDIO
TITLE "Balls"
PERFORMER "Brotzmann/Van Hove/Bennink"
PREGAP 00:01:00
INDEX 01 00:00:00
TRACK 02 AUDIO
TITLE "Garten"
PERFORMER "Brotzmann/Van Hove/Bennink"
INDEX 00 14:33:07
FILE "02 - Garten.wav" WAVE
INDEX 01 00:00:00
TRACK 03 AUDIO
TITLE "Filet Americain"
PERFORMER "Brotzmann/Van Hove/Bennink"
INDEX 00 06:13:01
FILE "03 - Filet Americain.wav" WAVE
INDEX 01 00:00:00
TRACK 04 AUDIO
TITLE "De Daag Waarop Sipke Eindelijk Zijn Nagels Knipte, En Verder Alle Andere A Moten"
PERFORMER "Brotzmann/Van Hove/Bennink"
INDEX 00 08:17:66
FILE "04 - De Daag Waarop Sipke Eindelijk Zijn Nagels Knipte, En Verder Alle Andere A Moten.wav" WAVE
INDEX 01 00:00:00
TRACK 05 AUDIO
TITLE "Untitled 1"
PERFORMER "Brotzmann/Van Hove/Bennink"
INDEX 00 11:13:53
FILE "05 - Untitled 1.wav" WAVE
INDEX 01 00:00:00
TRACK 06 AUDIO
TITLE "Untitled 2"
PERFORMER "Brotzmann/Van Hove/Bennink"
INDEX 00 08:55:02
FILE "06 - Untitled 2.wav" WAVE
INDEX 01 00:00:00
 
Лог проверки качества
AUDIOCHECKER v2.0 beta (build 457) - by Dester - opdester@freemail.hu
~~~~~~~~~~~~~~~~~~~~~~~~~~~~~~~~~~
-=== DO NOT EDIT THIS FILE! ===-
Path: ...\Brotzmann, Van Hove, Bennink - Balls (1970) - [FLAC]
1 -=- 01 - Balls.flac -=- CDDA (100%)
2 -=- 02 - Garten.flac -=- CDDA (100%)
3 -=- 03 - Filet Americain.flac -=- CDDA (100%)
4 -=- 04 - De Daag Waarop Sipke Eindelijk Zijn Nagels Knipte, En Verder Alle Andere A Moten.flac -=- CDDA (100%)
5 -=- 05 - Untitled 1.flac -=- CDDA (100%)
6 -=- 06 - Untitled 2.flac -=- CDDA (100%)
Summary 100,00% CDDA
124962164
Peter Brötzmann Trio - NDR Jazzworkshop 1974-February-04 Hannover, Funkhaus des NDR
Any questions -> support@pro-jazz.com. По всем вопросам пишите -> support@pro-jazz.com
21:58
160
Нет комментариев. Ваш будет первым!