Вы используете незарегистрированную версию компонента "Вкладки"!

Поиск

(Avant Garde, Modern Composition, Tzadik) Pierre-Yves Mace - Faux Jumeaux (feat. Dan Warburton) - 2002, FLAC (image+.cue), lossless

(Avant Garde, Modern Composition, Tzadik) Pierre-Yves Mace - Faux Jumeaux (feat. Dan Warburton) - 2002, FLAC (image+.cue), lossless
Треклист:
Pierre-Yves Macé - Faux Jumeaux (feat. Dan Warburton)
Жанр: Avant Garde, Modern Composition, Tzadik
Год выпуска диска: 2002
Производитель диска: USA (Tzadik)
Аудио кодек: FLAC
Тип рипа: image+.cue
Битрейт аудио: lossless
Продолжительность: 54.43
Трэклист:
1. Evocation (11:32)
Harp - Valérie Kajelnikov
Cymbals, Gongs, Bells, Chimes - Arthur Gordon , Luc Leroy , Yann Macé
Vibraphone, Samples - Pierre-Yves Macé
2. Défense De Voir Au-Dedans (13:27)
Cello - Ingrid Kuntzmann
Flute - Stéphanie Chatet
Harp - Valérie Kajelnikov
Marimba - Hervé Trovel
Piano, Samples, Treatments - Pierre-Yves Macé
3 - 5. Le Sentiment De La Nature Aux Buttes-Chaumont (22.04)
Clarinets, Soprano Saxophone - Sylvain Kassap
Glockenspiel, Samples, Treatments - Pierre-Yves Macé
Piano - Dan Warburton
6. Faux Jumeaux (7:31)
Bass Clarinet - Sylvain Kassap
Marimba Editing - Yann Macé
Marimba, Vibraphone - Luc Leroy
Piano - Dan Warburton
Bowed Vibraphone, Marimbas, Samples - Pierre-Yves Macé
Доп. информация: рип собственный
 
eac log
Exact Audio Copy V0.99 prebeta 5 from 4. May 2009
EAC extraction logfile from 29. April 2010, 16:40
Macй, Pierre-Yves / Faux-Jumeaux
Used drive : TSSTcorpCDDVDW TS-L633C Adapter: 0 ID: 1
Read mode : Secure
Utilize accurate stream : Yes
Defeat audio cache : Yes
Make use of C2 pointers : No
Read offset correction : 6
Overread into Lead-In and Lead-Out : No
Fill up missing offset samples with silence : Yes
Delete leading and trailing silent blocks : No
Null samples used in CRC calculations : Yes
Used interface : Native Win32 interface for Win NT & 2000
Used output format : User Defined Encoder
Selected bitrate : 768 kBit/s
Quality : High
Add ID3 tag : No
Command line compressor : C:\Program Files (x86)\Exact Audio Copy\Flac\flac.exe
Additional command line options : -8 -V %s
TOC of the extracted CD
Track | Start | Length | Start sector | End sector
---------------------------------------------------------
1 | 0:00.00 | 11:32.52 | 0 | 51951
2 | 11:32.52 | 13:27.06 | 51952 | 112482
3 | 24:59.58 | 9:12.57 | 112483 | 153939
4 | 34:12.40 | 7:29.73 | 153940 | 187687
5 | 41:42.38 | 5:29.22 | 187688 | 212384
6 | 47:11.60 | 7:31.37 | 212385 | 246246
Range status and errors
Selected range
Filename C:\CDs\Pierre-Yves Mace - Faux-Jumeaux\Macй, Pierre-Yves - Faux-Jumeaux.wav
Peak level 98.8 %
Range quality 100.0 %
Copy CRC 0C513FC1
Copy OK
No errors occurred
AccurateRip summary
Track 1 accurately ripped (confidence 1) [A5806F8A]
Track 2 accurately ripped (confidence 1) [6E0ED968]
Track 3 accurately ripped (confidence 1) [3FC26E17]
Track 4 accurately ripped (confidence 1) [174279DA]
Track 5 accurately ripped (confidence 1) [6AC574C6]
Track 6 accurately ripped (confidence 1) [1237ACA6]
All tracks accurately ripped
End of status report
 
cue
REM GENRE Avantgarde
REM DATE 2002
REM DISCID 420CD306
REM COMMENT "ExactAudioCopy v0.99pb5"
PERFORMER "Macй, Pierre-Yves"
TITLE "Faux-Jumeaux"
FILE "Macй, Pierre-Yves - Faux-Jumeaux.flac" WAVE
TRACK 01 AUDIO
TITLE "Evocation"
PERFORMER "Macй, Pierre-Yves"
INDEX 01 00:00:00
TRACK 02 AUDIO
TITLE "Dйfense de voir au-dedans"
PERFORMER "Macй, Pierre-Yves"
INDEX 00 11:30:43
INDEX 01 11:32:52
TRACK 03 AUDIO
TITLE "Le Sentiment De La Nature Aux Buttes-Chaumont 1"
PERFORMER "Macй, Pierre-Yves"
INDEX 00 24:54:32
INDEX 01 24:59:58
TRACK 04 AUDIO
TITLE "Le Sentiment De La Nature Aux Buttes-Chaumont 2"
PERFORMER "Macй, Pierre-Yves"
INDEX 01 34:12:40
TRACK 05 AUDIO
TITLE "Le Sentiment De La Nature Aux Buttes-Chaumont 3"
PERFORMER "Macй, Pierre-Yves"
INDEX 01 41:42:38
TRACK 06 AUDIO
TITLE "Faux-Jumeaux"
PERFORMER "Macй, Pierre-Yves"
INDEX 00 47:04:36
INDEX 01 47:11:60
Any questions -> support@pro-jazz.com. По всем вопросам пишите -> support@pro-jazz.com
21:57
145
Нет комментариев. Ваш будет первым!