Вы используете незарегистрированную версию компонента "Вкладки"!

Поиск

(Free Jazz, Free Improvisation) Bobby Bradford Extet - Midnight Pacific Airwaves - 2003, FLAC (image+.cue), lossless

(Free Jazz, Free Improvisation) Bobby Bradford Extet - Midnight Pacific Airwaves - 2003, FLAC (image+.cue), lossless
Треклист:
Bobby Bradford Extet / Midnight Pacific Airwaves
Жанр: Free Jazz, Free Improvisation
Страна-производитель диска: US
Год издания: 2003
Издатель (лейбл): Entropy Stereo Recordings
Номер по каталогу: ESR018
Аудиокодек: FLAC (*.flac)
Тип рипа: image+.cue
Битрейт аудио: lossless
Продолжительность: 60:17
Источник (релизер): cd
Наличие сканов в содержимом раздачи: нет
Треклист:
1. Comin' On (13:12)
2. She (18:53)
3. Improvisation #12 (6:30)
4. Blue Monk (9:58)
5. She (Bonus Track) (11:32)
 
Лог создания рипа
Exact Audio Copy V1.0 beta 2 from 29. April 2011
EAC extraction logfile from 23. February 2013, 20:41
Bobby Bradford Extet / Midnight Pacific Airwaves
Used drive : Optiarc DVD RW AD-7170A Adapter: 0 ID: 0
Read mode : Secure
Utilize accurate stream : Yes
Defeat audio cache : Yes
Make use of C2 pointers : No
Read offset correction : 48
Overread into Lead-In and Lead-Out : No
Fill up missing offset samples with silence : Yes
Delete leading and trailing silent blocks : No
Null samples used in CRC calculations : Yes
Used interface : Native Win32 interface for Win NT & 2000
Used output format : User Defined Encoder
Selected bitrate : 320 kBit/s
Quality : High
Add ID3 tag : No
Command line compressor : C:\Program Files\Exact Audio Copy\Flac\flac.exe
Additional command line options : -V -8 -T "Date=%year%" -T "Genre=%genre%" %source%
TOC of the extracted CD
Track | Start | Length | Start sector | End sector
---------------------------------------------------------
1 | 0:00.00 | 13:15.60 | 0 | 59684
2 | 13:15.60 | 18:57.12 | 59685 | 144971
3 | 32:12.72 | 9:58.00 | 144972 | 189821
4 | 42:10.72 | 6:34.00 | 189822 | 219371
5 | 48:44.72 | 11:32.65 | 219372 | 271336
Range status and errors
Selected range
Filename K:\ЕАС\Bobby Bradford Extet - Midnight Pacific Airwaves.wav
Peak level 100.0 %
Extraction speed 2.1 X
Range quality 99.9 %
Test CRC EEA6FC4A
Copy CRC EEA6FC4A
Copy OK
No errors occurred
AccurateRip summary
Track 1 accurately ripped (confidence 1) [502BA92A] (AR v1)
Track 2 accurately ripped (confidence 1) [0B667A17] (AR v1)
Track 3 accurately ripped (confidence 1) [C575B66C] (AR v1)
Track 4 accurately ripped (confidence 1) [A373C3CB] (AR v1)
Track 5 accurately ripped (confidence 1) [85BE75C5] (AR v1)
All tracks accurately ripped
End of status report
==== Log checksum DBF03BBBCF0800C8DB1CCD2F6A0F65A24F6A578718DC19DC3BBB75B29334266F ====
 
Содержание индексной карты (.CUE)
REM GENRE Jazz
REM DATE 2003
REM DISCID 490E2105
REM COMMENT "ExactAudioCopy v1.0b2"
PERFORMER " Bobby Bradford Extet"
TITLE "Midnight Pacific Airwaves"
FILE "Bobby Bradford Extet - Midnight Pacific Airwaves.flac" WAVE
TRACK 01 AUDIO
TITLE "Comin` On"
PERFORMER " Bobby Bradford Extet"
ISRC 000000000000
FLAGS DCP
INDEX 01 00:00:00
TRACK 02 AUDIO
TITLE "She"
PERFORMER " Bobby Bradford Extet"
ISRC 000000000000
FLAGS DCP
INDEX 00 13:11:60
INDEX 01 13:15:60
TRACK 03 AUDIO
TITLE "Blue Monk"
PERFORMER " Bobby Bradford Extet"
ISRC 000000000000
FLAGS DCP
INDEX 00 32:08:72
INDEX 01 32:12:72
TRACK 04 AUDIO
TITLE "Improvisation #12"
PERFORMER " Bobby Bradford Extet"
ISRC 000000000000
FLAGS DCP
INDEX 01 42:10:72
TRACK 05 AUDIO
TITLE "She"
PERFORMER " Bobby Bradford Extet"
ISRC 000000000000
FLAGS DCP
INDEX 00 48:40:72
INDEX 01 48:44:72
Доп. информация: A rare recording from an under-recorded period (1977) of Bobby Bradford's music. This date stems from a California radio broadcast.
 
Состав
Bobby Bradford (trumpet),
James Newton (flute),
Richard Rehwald (bass)
John Goldsmith (drums).
Includes a bonus track duet with Vinny Golia (clarinet) from a 2003 gig.
Any questions -> support@pro-jazz.com. По всем вопросам пишите -> support@pro-jazz.com
09:28
167
Нет комментариев. Ваш будет первым!