Вы используете незарегистрированную версию компонента "Вкладки"!

Поиск

(Free Jazz, Big Band) The Walter Thompson Orchestra (w/ Dave Douglas, Jim Pugliese, Frank London) - The Colonel - 1998, FLAC (tracks+.cue), lossless

(Free Jazz, Big Band) The Walter Thompson Orchestra (w/ Dave Douglas, Jim Pugliese, Frank London) - The Colonel - 1998, FLAC (tracks+.cue), lossless
Треклист:
The Walter Thompson Orchestra (w/ Dave Douglas, Jim Pugliese, Frank London) / The Colonel
Жанр: Free Jazz, Big Band
Страна-производитель диска: US
Год издания: 1998
Издатель (лейбл): 9 Winds Records
Номер по каталогу: NWCD0205
Страна: US
Аудиокодек: FLAC (*.flac)
Тип рипа: tracks+.cue
Битрейт аудио: lossless
Продолжительность: 62:32
Источник (релизер): свой фирменный диск
Наличие сканов в содержимом раздачи:
Треклист:
1 Strykers Creek 7:54
2 The Colonel 10:34
3 Scones 6:29
4 T 12:31
5 Roraima 6:44
6 SP#7 6:20
7 SP#3 5:30
8 SP#2 6:10
 
Лог создания рипа
Exact Audio Copy V1.0 beta 3 from 29. August 2011
EAC extraction logfile from 24. February 2013, 10:50
The Walter Thompson Orchestra / The Colonel
Used drive : PIONEER DVD-RW DVR-115D Adapter: 0 ID: 0
Read mode : Secure
Utilize accurate stream : Yes
Defeat audio cache : Yes
Make use of C2 pointers : No
Read offset correction : 48
Overread into Lead-In and Lead-Out : No
Fill up missing offset samples with silence : Yes
Delete leading and trailing silent blocks : No
Null samples used in CRC calculations : Yes
Used interface : Installed external ASPI interface
Gap handling : Appended to previous track
Used output format : User Defined Encoder
Selected bitrate : 896 kBit/s
Quality : High
Add ID3 tag : No
Command line compressor : C:\Program Files\Exact Audio Copy\FLAC\FLAC.EXE
Additional command line options : -6 -V -T "ARTIST=%artist%" -T "TITLE=%title%" -T "ALBUM=%albumtitle%" -T "DATE=%year%" -T "TRACKNUMBER=%tracknr%" -T "GENRE=%genre%" -T "COMMENT=%comment%" -T "BAND=%albuminterpret%" -T "COMPOSER=%composer%" %haslyrics%--tag-from-file=LYRICS="%lyricsfile%"%haslyrics% -T "DISCNUMBER=%cdnumber%" -T "TOTALDISCS=%totalcds%" -T "TOTALTRACKS=%numtracks%" %hascover%--picture="%coverfile%"%hascover% %source% -o %dest%
TOC of the extracted CD
Track | Start | Length | Start sector | End sector
---------------------------------------------------------
1 | 0:00.00 | 7:56.34 | 0 | 35733
2 | 7:56.34 | 10:36.73 | 35734 | 83506
3 | 18:33.32 | 6:22.59 | 83507 | 112215
4 | 24:56.16 | 6:31.36 | 112216 | 141576
5 | 31:27.52 | 12:34.22 | 141577 | 198148
6 | 44:01.74 | 5:33.27 | 198149 | 223150
7 | 49:35.26 | 6:46.18 | 223151 | 253618
8 | 56:21.44 | 6:11.05 | 253619 | 281448
Track 1
Filename D:\zzz\01 - Strykers Creek.wav
Pre-gap length 0:00:02.00
Peak level 99.3 %
Extraction speed 5.1 X
Track quality 100.0 %
Test CRC 2ABB8BCF
Copy CRC 2ABB8BCF
Track not present in AccurateRip database
Copy OK
Track 2
Filename D:\zzz\02 - The Colonel.wav
Pre-gap length 0:00:01.65
Peak level 99.4 %
Extraction speed 6.2 X
Track quality 100.0 %
Test CRC EB164466
Copy CRC EB164466
Track not present in AccurateRip database
Copy OK
Track 3
Filename D:\zzz\03 - Scones.wav
Pre-gap length 0:00:01.52
Peak level 99.4 %
Extraction speed 6.2 X
Track quality 99.9 %
Test CRC 36DA14DD
Copy CRC 36DA14DD
Track not present in AccurateRip database
Copy OK
Track 4
Filename D:\zzz\04 - T.wav
Pre-gap length 0:00:01.54
Peak level 99.8 %
Extraction speed 7.2 X
Track quality 100.0 %
Test CRC 13E43E39
Copy CRC 13E43E39
Track not present in AccurateRip database
Copy OK
Track 5
Filename D:\zzz\05 - Roraima.wav
Pre-gap length 0:00:01.68
Peak level 99.4 %
Extraction speed 7.7 X
Track quality 99.9 %
Test CRC 6A3AF81E
Copy CRC 6A3AF81E
Track not present in AccurateRip database
Copy OK
Track 6
Filename D:\zzz\06 - SP#7.wav
Pre-gap length 0:00:01.74
Peak level 99.4 %
Extraction speed 8.1 X
Track quality 100.0 %
Test CRC 230369B3
Copy CRC 230369B3
Track not present in AccurateRip database
Copy OK
Track 7
Filename D:\zzz\07 - SP#3.wav
Pre-gap length 0:00:02.00
Peak level 99.2 %
Extraction speed 8.6 X
Track quality 100.0 %
Test CRC 787FB95F
Copy CRC 787FB95F
Track not present in AccurateRip database
Copy OK
Track 8
Filename D:\zzz\08 - SP#2.wav
Pre-gap length 0:00:01.45
Peak level 100.0 %
Extraction speed 8.9 X
Track quality 100.0 %
Test CRC B5E41C70
Copy CRC B5E41C70
Track not present in AccurateRip database
Copy OK
None of the tracks are present in the AccurateRip database
No errors occurred
End of status report
==== Log checksum E7DCF75B26C8B5B4B089991429E9AC2B3DE927A6E60146836C074CB3BFC474EB ====
 
Содержание индексной карты (.CUE)
REM GENRE "Big Band"
REM DATE 1998
REM DISCID 860EA808
REM COMMENT "ExactAudioCopy v1.0b3"
PERFORMER "The Walter Thompson Orchestra"
TITLE "The Colonel"
FILE "01 - Strykers Creek.wav" WAVE
TRACK 01 AUDIO
TITLE "Strykers Creek"
PERFORMER "The Walter Thompson Orchestra"
INDEX 01 00:00:00
TRACK 02 AUDIO
TITLE "The Colonel"
PERFORMER "The Walter Thompson Orchestra"
INDEX 00 07:54:44
FILE "02 - The Colonel.wav" WAVE
INDEX 01 00:00:00
TRACK 03 AUDIO
TITLE "Scones"
PERFORMER "The Walter Thompson Orchestra"
INDEX 00 10:35:21
FILE "03 - Scones.wav" WAVE
INDEX 01 00:00:00
TRACK 04 AUDIO
TITLE "T"
PERFORMER "The Walter Thompson Orchestra"
INDEX 00 06:21:05
FILE "04 - T.wav" WAVE
INDEX 01 00:00:00
TRACK 05 AUDIO
TITLE "Roraima"
PERFORMER "The Walter Thompson Orchestra"
INDEX 00 06:29:43
FILE "05 - Roraima.wav" WAVE
INDEX 01 00:00:00
TRACK 06 AUDIO
TITLE "SP#7"
PERFORMER "The Walter Thompson Orchestra"
INDEX 00 12:32:23
FILE "06 - SP#7.wav" WAVE
INDEX 01 00:00:00
TRACK 07 AUDIO
TITLE "SP#3"
PERFORMER "The Walter Thompson Orchestra"
INDEX 00 05:31:27
FILE "07 - SP#3.wav" WAVE
INDEX 01 00:00:00
TRACK 08 AUDIO
TITLE "SP#2"
PERFORMER "The Walter Thompson Orchestra"
INDEX 00 06:44:48
FILE "08 - SP#2.wav" WAVE
INDEX 01 00:00:00
 
Лог проверки качества
d:\>d:\aucdtect -d/-m0 d:\zzz\*.wav
auCDtect: CD records authenticity detector, version 0.8.2
Copyright (c) 2004 Oleg Berngardt. All rights reserved.
Copyright (c) 2004 Alexander Djourik. All rights reserved.
------------------------------------------------------------
Processing file: [01. Strykers Creek.wav]
------------------------------------------------------------
This track looks like CDDA with probability 100%
------------------------------------------------------------
Processing file: [02. The Colonel.wav]
------------------------------------------------------------
This track looks like CDDA with probability 100%
------------------------------------------------------------
Processing file: [03. Scones.wav]
------------------------------------------------------------
This track looks like CDDA with probability 100%
------------------------------------------------------------
Processing file: [04. T.wav]
------------------------------------------------------------
This track looks like CDDA with probability 99%
------------------------------------------------------------
Processing file: [05. Roraima.wav]
------------------------------------------------------------
This track looks like CDDA with probability 100%
------------------------------------------------------------
Processing file: [06. SP#7.wav]
------------------------------------------------------------
This track looks like CDDA with probability 100%
------------------------------------------------------------
Processing file: [07. SP#3.wav]
------------------------------------------------------------
This track looks like CDDA with probability 99%
------------------------------------------------------------
Processing file: [08. SP#2.wav]
------------------------------------------------------------
This track looks like CDDA with probability 100%
------------------------------------------------------------
Final Conclusion:
------------------------------------------------------------
These tracks looks like CDDA with probability 100%
Доп. информация:
 
Album Info & Downtown Music Gallery Review
Tracks 1 to 4 recorded at Kampo Recording Studio in NYC, NY, April 17th 18th, 1995
Tracks 5 to 8 recorded at the Greenwich House Hayden Auditorium, April 1st, 1996
Superb & challenging compositions and unique conduction/improvs for this all-star large ensemble led by Walter Thompson. The first half of this effort is all excellent compositions from Walter, the second half all hand conducted improv equally fascinating. The charts challenge the players to continually shift textures, layers of ideas flow through numerous strong solos. The late-great Thomas Chapin is all over this work, pulling off some incredible alto solos & blowing his magical flute spice. Thomas' alto solo on "Scones" is so gorgeous, so heartfelt, with it's riveting cry of love tone, it had me weeping once again. Guitarists Dave Tronzo & Rolf Sturm, as well as cellist Tomas Ulrich are also all over, providing an ever-changing cushion of cool bent el. strings! The other fine players include Dave Douglas, Frank London, Herb Robertson, Steve Bernstein, Phillip Johnston, Allan Chase, Steve Swell, Joe Fonda, Pablo Aslan, Boris Rayskin & Jim Pugliese. Since this recording was made in '95 & '96, both Thomas Chapin & Boris Raskin have passed and Dave Tronzo has moved to Europe indefinitely. Nice to hear them shining on this wondeful cd.
 
Состав
Cello – Tomas Ulrich (tracks: 1 to 4), Boris Rayskin (tracks: 5 to 8)
Conductor, Composed By – Walter Thompson
Double Bass – Joe Fonda (tracks: 1 to 4), Pablo Aslan
French Horn – Marshall Sealy (tracks: 5 to 8)
Guitar – Dave Tronzo, Rolf Sturm
Percussion – Hollis Headrick, Jim Pugliese (tracks: 1 to 4)
Reeds [Woodwinds] – Allan Chase, David Castiglione, Len Detlor (tracks: 1 to 4), Michael Blake (tracks: 5 to 8), Philip Johnston, Thomas Chapin, Walter Thompson (tracks: 1 to 4)
Trombone – Bob Hovey, Jim Leff (tracks: 1 to 4), Steve Swell
Trumpet – Dave Douglas (tracks: 1 to 4), Frank London (tracks: 1 to 4), Herb Robertson, Ron Horton (tracks: 5 to 8), Steven Bernstein (tracks: 1 to 4)
Any questions -> support@pro-jazz.com. По всем вопросам пишите -> support@pro-jazz.com
09:29
174
Нет комментариев. Ваш будет первым!