Вы используете незарегистрированную версию компонента "Вкладки"!

Поиск

(Free Jazz, Free Improvisation, Avantgarde) Motoharu Yoshizawa, Ikue Mori, Elliott Sharp, Lawrence D Butch Morris -GobbledyGook, N.Y. Live - 1990, FLAC (tracks+.cue), lossless

(Free Jazz, Free Improvisation, Avantgarde) Motoharu Yoshizawa, Ikue Mori, Elliott Sharp, Lawrence D Butch Morris -GobbledyGook, N.Y. Live - 1990, FLAC (tracks+.cue), lossless
Треклист:
Motoharu Yoshizawa, Ikue Mori, Elliott Sharp, Lawrence D Butch Morris / GobbledyGook, N.Y. Live
Жанр: Free Jazz, Free Improvisation, Avantgarde
Страна-производитель диска: Japan
Год издания: 1990
Издатель (лейбл): P.S.F. Records
Номер по каталогу: PSFD-8
Страна: Japan
Аудиокодек: FLAC (*.flac)
Тип рипа: tracks+.cue
Битрейт аудио: lossless
Продолжительность: 0:56:31.
Источник (релизер): clustert
Наличие сканов в содержимом раздачи: да
Треклист:
01. 5:36
02. 7:29
03. 7:05
04. 5:04
05. 5:28
06. 3:11
07. 17:50
08. 4:45
 
Лог создания рипа
Exact Audio Copy V1.0 beta 3 from 29. August 2011
Отчёт EAC об извлечении, выполненном 4. февраля 2013, 14:22
Motoharu Yoshizawa / Gobbledy Gook, N.Y. Live
Дисковод: ASUS DRW-1814BLT Adapter: 4 ID: 0
Режим чтения : Достоверность
Использование точного потока : Да
Отключение кэша аудио : Да
Использование указателей C2 : Нет
Коррекция смещения при чтении : 6
Способность читать области Lead-in и Lead-out : Нет
Заполнение пропущенных сэмплов тишиной : Да
Удаление блоков с тишиной в начале и конце : Нет
При вычислениях CRC использовались нулевые сэмплы : Да
Интерфейс : Встроенный Win32-интерфейс для Win NT/2000
Обработка зазоров : Добавлено к предыдущему треку
Выходной формат : Пользовательский кодировщик
Выбранный битрейт : 128 kBit/s
Качество : Высокий
Добавление ID3-тега : Нет
Утилита сжатия : C:\Program Files\Exact Audio Copy\Flac\flac.exe
Дополнительные параметры : -V -8 -T "Genre=%genre%" -T "Artist=%artist%" -T "Title=%title%" -T "Album=%albumtitle%" -T "Date=%year%" -T "Tracknumber=%tracknr%" -T "Comment=EAC1.0b2 FLAC -8" %source%
TOC извлечённого CD
Трек | Старт | Длительность | Начальный сектор | Конечный сектор
---------------------------------------------------------------------
1 | 0:00.00 | 5:36.20 | 0 | 25219
2 | 5:36.20 | 7:29.12 | 25220 | 58906
3 | 13:05.32 | 7:05.18 | 58907 | 90799
4 | 20:10.50 | 5:04.40 | 90800 | 113639
5 | 25:15.15 | 5:28.55 | 113640 | 138294
6 | 30:43.70 | 3:11.60 | 138295 | 152679
7 | 33:55.55 | 17:50.27 | 152680 | 232956
8 | 51:46.07 | 4:45.38 | 232957 | 254369
Трек 1
Имя файла R:\Раздача\Gobbledygook (Motoharu Yoshizawa, Ikue Mori, Elliott Sharp, Lawlence-D-Butch-Morris) - 1990\01 Трек01.wav
Длина предзазора 0:00:02.00
Пиковый уровень 57.4 %
Скорость извлечения 5.4 X
Качество трека 100.0 %
CRC теста 69617802
CRC копии 69617802
Копирование... OK
Трек 2
Имя файла R:\Раздача\Gobbledygook (Motoharu Yoshizawa, Ikue Mori, Elliott Sharp, Lawlence-D-Butch-Morris) - 1990\02 Трек02.wav
Длина предзазора 0:00:02.10
Пиковый уровень 46.9 %
Скорость извлечения 6.0 X
Качество трека 99.9 %
CRC теста 63F9C5AA
CRC копии 63F9C5AA
Копирование... OK
Трек 3
Имя файла R:\Раздача\Gobbledygook (Motoharu Yoshizawa, Ikue Mori, Elliott Sharp, Lawlence-D-Butch-Morris) - 1990\03 Трек03.wav
Длина предзазора 0:00:04.60
Пиковый уровень 54.5 %
Скорость извлечения 7.2 X
Качество трека 100.0 %
CRC теста 4B8CF172
CRC копии 4B8CF172
Копирование... OK
Трек 4
Имя файла R:\Раздача\Gobbledygook (Motoharu Yoshizawa, Ikue Mori, Elliott Sharp, Lawlence-D-Butch-Morris) - 1990\04 Трек04.wav
Длина предзазора 0:00:04.50
Пиковый уровень 76.0 %
Скорость извлечения 7.6 X
Качество трека 100.0 %
CRC теста 830330FF
CRC копии 830330FF
Копирование... OK
Трек 5
Имя файла R:\Раздача\Gobbledygook (Motoharu Yoshizawa, Ikue Mori, Elliott Sharp, Lawlence-D-Butch-Morris) - 1990\05 Трек05.wav
Длина предзазора 0:00:06.08
Пиковый уровень 75.9 %
Скорость извлечения 8.1 X
Качество трека 100.0 %
CRC теста 707EB1B4
CRC копии 707EB1B4
Копирование... OK
Трек 6
Имя файла R:\Раздача\Gobbledygook (Motoharu Yoshizawa, Ikue Mori, Elliott Sharp, Lawlence-D-Butch-Morris) - 1990\06 Трек06.wav
Длина предзазора 0:00:02.00
Пиковый уровень 72.5 %
Скорость извлечения 7.9 X
Качество трека 100.0 %
CRC теста 0BCED74E
CRC копии 0BCED74E
Копирование... OK
Трек 7
Имя файла R:\Раздача\Gobbledygook (Motoharu Yoshizawa, Ikue Mori, Elliott Sharp, Lawlence-D-Butch-Morris) - 1990\07 Трек07.wav
Длина предзазора 0:00:02.28
Пиковый уровень 68.6 %
Скорость извлечения 9.7 X
Качество трека 99.9 %
CRC теста F1326521
CRC копии F1326521
Копирование... OK
Трек 8
Имя файла R:\Раздача\Gobbledygook (Motoharu Yoshizawa, Ikue Mori, Elliott Sharp, Lawlence-D-Butch-Morris) - 1990\08 Трек08.wav
Длина предзазора 0:00:02.02
Пиковый уровень 75.6 %
Скорость извлечения 9.0 X
Качество трека 99.9 %
CRC теста 21C16E7C
CRC копии 21C16E7C
Копирование... OK
Ошибок не произошло
Конец отчёта
==== Контрольная сумма отчёта 53E8D2A61C699FC38E4E168E9E935C1CBC361B7B9D180073DFA2F5B8E3DB08D8 ====
 
Содержание индексной карты (.CUE)
REM GENRE "Free Jazz"
REM DATE 1990
REM DISCID 640D3F08
REM COMMENT "ExactAudioCopy v1.0b3"
PERFORMER "Motoharu Yoshizawa"
TITLE "Gobbledy Gook, N.Y. Live"
FILE "01 Трек01.wav" WAVE
TRACK 01 AUDIO
TITLE "Трек01"
PERFORMER "Motoharu Yoshizawa"
INDEX 01 00:00:00
TRACK 02 AUDIO
TITLE "Трек02"
PERFORMER "Motoharu Yoshizawa"
INDEX 00 05:34:10
FILE "02 Трек02.wav" WAVE
INDEX 01 00:00:00
TRACK 03 AUDIO
TITLE "Трек03"
PERFORMER "Motoharu Yoshizawa"
INDEX 00 07:24:27
FILE "03 Трек03.wav" WAVE
INDEX 01 00:00:00
TRACK 04 AUDIO
TITLE "Трек04"
PERFORMER "Motoharu Yoshizawa"
INDEX 00 07:00:43
FILE "04 Трек04.wav" WAVE
INDEX 01 00:00:00
TRACK 05 AUDIO
TITLE "Трек05"
PERFORMER "Motoharu Yoshizawa"
INDEX 00 04:58:32
FILE "05 Трек05.wav" WAVE
INDEX 01 00:00:00
TRACK 06 AUDIO
TITLE "Трек06"
PERFORMER "Motoharu Yoshizawa"
INDEX 00 05:26:55
FILE "06 Трек06.wav" WAVE
INDEX 01 00:00:00
TRACK 07 AUDIO
TITLE "Трек07"
PERFORMER "Motoharu Yoshizawa"
INDEX 00 03:09:32
FILE "07 Трек07.wav" WAVE
INDEX 01 00:00:00
TRACK 08 AUDIO
TITLE "Трек08"
PERFORMER "Motoharu Yoshizawa"
INDEX 00 17:48:25
FILE "08 Трек08.wav" WAVE
INDEX 01 00:00:00
Доп. информация: Ikue Mori (perc)
Motoharu Yoshizawa (b)
JVC-Jazz Festival-Knitting Factory Goes Uptown
at Whitney Museum
June, 27, 1990
Lawrence D "Butch" Morris (cornet)
Elliott Sharp (g, ss)
Motoharu Yoshizawa (b)
at Knitting Factory
May, 22, 1990
Elliott Sharp (g, ss)
Motoharu Yoshizawa (b)
at P.S. 122
June, 28, 1990
Any questions -> support@pro-jazz.com. По всем вопросам пишите -> support@pro-jazz.com
08:40
184
Нет комментариев. Ваш будет первым!