Вы используете незарегистрированную версию компонента "Вкладки"!

Поиск

(Contemporary Jazz, Free Improvisation) Henry Threadgill Very Very Circus - Live at Koncepts - 1991 (?), FLAC (tracks+.cue), lossless

(Contemporary Jazz, Free Improvisation) Henry Threadgill Very Very Circus - Live at Koncepts - 1991 (?), FLAC (tracks+.cue), lossless
Треклист:
Henry Threadgill Very Very Circus / Live at Koncepts
Жанр: Contemporary Jazz, Free Improvisation
Страна-производитель диска: U.S.A.
Год издания: 1991 (?)
Издатель (лейбл): Taylor Made Records
Номер по каталогу: TMR 10292-2
Аудиокодек: FLAC (*.flac)
Тип рипа: tracks+.cue
Битрейт аудио: lossless
Продолжительность: 54:21
Источник (релизер): Max Monteiro
Наличие сканов в содержимом раздачи: нет
Треклист:
1. Next 9:52
2. Snakes Don’t Do Suicide 7:56
3. I Love You with an Asterisk 5:43
4. Someplace 7:38
5. Dangerously Slippy 715
6. King Kong 6:16
7. Breach of Protocol 9:40
All compositions written and arranged by Henry Threadgill.
 
Лог создания рипа
Exact Audio Copy V1.0 beta 3 from 29. August 2011
EAC extraction logfile from 4. February 2013, 14:18
Henry Threadgill Very Very Circus / Live at Koncepts
Used drive : SlimtypeeNAU508 5 Adapter: 1 ID: 0
Read mode : Secure
Utilize accurate stream : Yes
Defeat audio cache : Yes
Make use of C2 pointers : No
Read offset correction : 6
Overread into Lead-In and Lead-Out : No
Fill up missing offset samples with silence : Yes
Delete leading and trailing silent blocks : No
Null samples used in CRC calculations : Yes
Used interface : Native Win32 interface for Win NT & 2000
Gap handling : Appended to previous track
Used output format : User Defined Encoder
Selected bitrate : 768 kBit/s
Quality : High
Add ID3 tag : No
Command line compressor : C:\Program Files (x86)\Exact Audio Copy\Flac\flac.exe
Additional command line options : -8 -V -T "ARTIST=%artist%" -T "TITLE=%title%" -T "ALBUM=%albumtitle%" -T "DATE=%year%" -T "TRACKNUMBER=%tracknr%" -T "GENRE=%genre%" -T "PERFORMER=%albuminterpret%" -T "COMPOSER=%composer%" %haslyrics%--tag-from-file=LYRICS="%lyricsfile%"%haslyrics% -T "ALBUMARTIST=%albumartist%" -T "DISCNUMBER=%cdnumber%" -T "TOTALDISCS=%totalcds%" -T "TOTALTRACKS=%numtracks%" -T "COMMENT=%comment%" %source% -o %dest%
TOC of the extracted CD
Track | Start | Length | Start sector | End sector
---------------------------------------------------------
1 | 0:00.00 | 9:52.00 | 0 | 44399
2 | 9:52.00 | 7:56.20 | 44400 | 80119
3 | 17:48.20 | 5:43.10 | 80120 | 105854
4 | 23:31.30 | 7:37.52 | 105855 | 140181
5 | 31:09.07 | 7:15.33 | 140182 | 172839
6 | 38:24.40 | 6:16.25 | 172840 | 201064
7 | 44:40.65 | 9:40.15 | 201065 | 244579
Track 1
Filename C:\EAC rips\01 - Next.wav
Pre-gap length 0:00:02.00
Peak level 97.7 %
Extraction speed 2.7 X
Track quality 100.0 %
Test CRC C097B488
Copy CRC C097B488
Accurately ripped (confidence 7) [39EF7600] (AR v1)
Copy OK
Track 2
Filename C:\EAC rips\02 - Snakes Don't Do Suicide.wav
Pre-gap length 0:00:00.35
Peak level 97.7 %
Extraction speed 3.2 X
Track quality 100.0 %
Test CRC 9F6F220D
Copy CRC 9F6F220D
Accurately ripped (confidence 7) [53396D2E] (AR v1)
Copy OK
Track 3
Filename C:\EAC rips\03 - I Love You with an Asterisk.wav
Peak level 89.2 %
Extraction speed 3.5 X
Track quality 100.0 %
Test CRC 764AD88F
Copy CRC 764AD88F
Accurately ripped (confidence 7) [AED1A011] (AR v1)
Copy OK
Track 4
Filename C:\EAC rips\04 - Someplace.wav
Pre-gap length 0:00:01.73
Peak level 86.3 %
Extraction speed 3.8 X
Track quality 100.0 %
Test CRC BEF713B2
Copy CRC BEF713B2
Accurately ripped (confidence 7) [D677C56B] (AR v1)
Copy OK
Track 5
Filename C:\EAC rips\05 - Dangerously Slippy.wav
Pre-gap length 0:00:05.05
Peak level 97.7 %
Extraction speed 4.1 X
Track quality 100.0 %
Test CRC C7CB710B
Copy CRC C7CB710B
Accurately ripped (confidence 7) [9913A757] (AR v1)
Copy OK
Track 6
Filename C:\EAC rips\06 - King Kong.wav
Peak level 94.4 %
Extraction speed 4.3 X
Track quality 100.0 %
Test CRC A77A8851
Copy CRC A77A8851
Accurately ripped (confidence 7) [3A858185] (AR v1)
Copy OK
Track 7
Filename C:\EAC rips\07 - Breach of Protocol.wav
Pre-gap length 0:00:02.73
Peak level 95.5 %
Extraction speed 4.7 X
Track quality 100.0 %
Test CRC 57776CC3
Copy CRC 57776CC3
Accurately ripped (confidence 7) [05C0F9C1] (AR v1)
Copy OK
All tracks accurately ripped
No errors occurred
End of status report
---- CUETools DB Plugin V2.1.4
[CTDB TOCID: rjdCYQ1iKGFsA8_0uEuKeDylrK0-] disk not present in database
Submit result: rjdCYQ1iKGFsA8_0uEuKeDylrK0- has been uploaded
==== Log checksum 22943D86C64B7BA2DEDE4751E38B08AC9C23E2DB2A948E3EEEB4AF28674166F6 ====
 
Содержание индексной карты (.CUE)
REM GENRE Jazz
REM DATE 1991
REM DISCID 530CBD07
REM COMMENT "ExactAudioCopy v1.0b3"
PERFORMER "Henry Threadgill Very Very Circus"
TITLE "Live at Koncepts"
FILE "01 - Next.wav" WAVE
TRACK 01 AUDIO
TITLE "Next"
PERFORMER "Henry Threadgill Very Very Circus"
INDEX 01 00:00:00
TRACK 02 AUDIO
TITLE "Snakes Don't Do Suicide"
PERFORMER "Henry Threadgill Very Very Circus"
INDEX 00 09:51:40
FILE "02 - Snakes Don't Do Suicide.wav" WAVE
INDEX 01 00:00:00
FILE "03 - I Love You with an Asterisk.wav" WAVE
TRACK 03 AUDIO
TITLE "I Love You with an Asterisk"
PERFORMER "Henry Threadgill Very Very Circus"
INDEX 01 00:00:00
TRACK 04 AUDIO
TITLE "Someplace"
PERFORMER "Henry Threadgill Very Very Circus"
INDEX 00 05:41:12
FILE "04 - Someplace.wav" WAVE
INDEX 01 00:00:00
TRACK 05 AUDIO
TITLE "Dangerously Slippy"
PERFORMER "Henry Threadgill Very Very Circus"
INDEX 00 07:32:47
FILE "05 - Dangerously Slippy.wav" WAVE
INDEX 01 00:00:00
FILE "06 - King Kong.wav" WAVE
TRACK 06 AUDIO
TITLE "King Kong"
PERFORMER "Henry Threadgill Very Very Circus"
INDEX 01 00:00:00
TRACK 07 AUDIO
TITLE "Breach of Protocol"
PERFORMER "Henry Threadgill Very Very Circus"
INDEX 00 06:13:27
FILE "07 - Breach of Protocol.wav" WAVE
INDEX 01 00:00:00
Доп. информация: Recorded live at Koncepts Cultural Gallery, Oakland, California, May 1991.
 
Состав
Henry Threadgill – Alto Saxophone, Flute and Bass Flute
Mark Taylor – French Horn
Brandon Ross – Electric and Acoustic Guitar
Masujaa – Electric and Acoustic Guitar
Edwin Rodriguez – Tuba
Marcus Rojas – Tuba
Larry Bright – Drums and Percussion
Any questions -> support@pro-jazz.com. По всем вопросам пишите -> support@pro-jazz.com
08:41
171
Нет комментариев. Ваш будет первым!