Вы используете незарегистрированную версию компонента "Вкладки"!

Поиск

(Free Jazz, Free Impovisation) Andrea Centazzo Mitteleuropa Orchestra - The Complete Recording Box Set (6CD) {Ictus Records} - 2007, FLAC (tracks+.cue), lossless

Треклист:
Andrea Centazzo Mitteleuropa Orchestra
The Complete Recording Box Set


Жанр: Free Jazz, Free Impovisation
Страна-производитель диска: USA
Год издания диска: 2007
Издатель (лейбл): Ictus Records
Номер по каталогу: ICTUS BOXSET 501
Страна: Italy/USA
Аудиокодек: FLAC (*.flac)
Тип рипа: tracks+.cue
Битрейт аудио: lossless
Продолжительность: 5h 28m 32s
Источник (релизер): Собственный рип
Наличие сканов в содержимом раздачи: да
CD1: The Complete Recording Vol. 1
1. Echoes for Large Ensemble: I Movement - 21:43
2. Echoes for Large Ensemble: II Movement - 07:08
3. Echoes for Large Ensemble: III Movement - 22:59
CD2: The Complete Recording Vol. 2
1. Satori for Large Ensemble: I Movement - 19:44
2. Satori for Large Ensemble: II Movement - 30:32
CD3: The Complete Recording Vol. 3
1. The Radio Session #1 - 17:24
2. The Radio Session #2 - 08:04
3. The Radio Session #3 - 14:32
4. The Radio Session #4 - 12:42
CD4: The Complete Recording Vol. 4
1. The Orchestral Dharma: I Movement - 15:30
2. The Orchestral Dharma: II Movement - 17:51
3. The Orchestral Dharma: III Movement - 18:03
CD5: The Complete Recording Vol. 5
1. Samudaya: I Movement - 08:30
2. Samudaya: II Movement - 07:04
3. Samudaya: III Movement - 14:01
4. Samudaya: IV Movement - 08:14
5. Samudaya: V Movement - 13:29
CD6: The Complete Recording Vol. 6
1. In the Daisy Garden Suite: I Movement - 17:20
2. In the Daisy Garden Suite: II Movement - 06:35
3. In the Daisy Garden Suite: III Movement - 11:12
4. In the Daisy Garden Suite: IV Movement - 18:20
5. In the Daisy Garden Suite: V Movement - 05:18
6. Jazz Suite for Duke: I Movement - 03:54
7. Jazz Suite for Duke: II Movement - 07:24
 
Лог создания рипа
Exact Audio Copy V0.99 prebeta 5 from 4. May 2009
EAC extraction logfile from 21. November 2009, 13:45
Andrea Centazzo Mitteleuropa Orchestra / The Complete Recordings Vol. 1
Used drive : PLEXTOR DVDR PX-760A Adapter: 0 ID: 0
Read mode : Secure
Utilize accurate stream : Yes
Defeat audio cache : Yes
Make use of C2 pointers : No
Read offset correction : 30
Overread into Lead-In and Lead-Out : Yes
Fill up missing offset samples with silence : Yes
Delete leading and trailing silent blocks : No
Null samples used in CRC calculations : Yes
Used interface : Native Win32 interface for Win NT & 2000
Gap handling : Appended to previous track
Used output format : User Defined Encoder
Selected bitrate : 128 kBit/s
Quality : High
Add ID3 tag : No
Command line compressor : C:\Program Files\FLAC\bin\flac.exe
Additional command line options : -8 -V -T "ARTIST=%a" -T "TITLE=%t" -T "ALBUM=%g" -T "DATE=%y" -T "TRACKNUMBER=%n" -T "GENRE=%m" %s
TOC of the extracted CD
Track | Start | Length | Start sector | End sector
---------------------------------------------------------
1 | 0:00.00 | 21:47.60 | 0 | 98084
2 | 21:47.60 | 7:12.34 | 98085 | 130518
3 | 29:00.19 | 22:59.71 | 130519 | 234014
Track 1
Filename H:\Andrea Centazzo Mitteleuropa Orchestra - The Complete Recordings Vol. 1 (2007) [FLAC]\01 - Echoes for Large Ensemble - I Movement.wav
Pre-gap length 0:00:02.00
Peak level 76.7 %
Track quality 100.0 %
Test CRC 8F9F52E3
Copy CRC 8F9F52E3
Track not present in AccurateRip database
Copy OK
Track 2
Filename H:\Andrea Centazzo Mitteleuropa Orchestra - The Complete Recordings Vol. 1 (2007) [FLAC]\02 - Echoes for Large Ensemble - II Movement.wav
Peak level 96.5 %
Track quality 100.0 %
Test CRC 766AD638
Copy CRC 766AD638
Track not present in AccurateRip database
Copy OK
Track 3
Filename H:\Andrea Centazzo Mitteleuropa Orchestra - The Complete Recordings Vol. 1 (2007) [FLAC]\03 - Echoes for Large Ensemble - III Movement.wav
Peak level 100.0 %
Track quality 100.0 %
Test CRC 18678692
Copy CRC 18678692
Track not present in AccurateRip database
Copy OK
None of the tracks are present in the AccurateRip database
No errors occurred
End of status report
--------------------
Exact Audio Copy V0.99 prebeta 5 from 4. May 2009
EAC extraction logfile from 21. November 2009, 14:01
Andrea Centazzo Mitteleuropa Orchestra / The Complete Recordings Vol. 2
Used drive : PLEXTOR DVDR PX-760A Adapter: 0 ID: 0
Read mode : Secure
Utilize accurate stream : Yes
Defeat audio cache : Yes
Make use of C2 pointers : No
Read offset correction : 30
Overread into Lead-In and Lead-Out : Yes
Fill up missing offset samples with silence : Yes
Delete leading and trailing silent blocks : No
Null samples used in CRC calculations : Yes
Used interface : Native Win32 interface for Win NT & 2000
Gap handling : Appended to previous track
Used output format : User Defined Encoder
Selected bitrate : 128 kBit/s
Quality : High
Add ID3 tag : No
Command line compressor : C:\Program Files\FLAC\bin\flac.exe
Additional command line options : -8 -V -T "ARTIST=%a" -T "TITLE=%t" -T "ALBUM=%g" -T "DATE=%y" -T "TRACKNUMBER=%n" -T "GENRE=%m" %s
TOC of the extracted CD
Track | Start | Length | Start sector | End sector
---------------------------------------------------------
1 | 0:00.00 | 19:49.20 | 0 | 89194
2 | 19:49.20 | 30:32.35 | 89195 | 226629
Track 1
Filename H:\Andrea Centazzo Mitteleuropa Orchestra - The Complete Recordings Vol. 2 (2007) [FLAC]\01 - Satori for Large Ensemble - I Movement.wav
Pre-gap length 0:00:02.00
Peak level 100.0 %
Track quality 100.0 %
Test CRC E2CE0F75
Copy CRC E2CE0F75
Track not present in AccurateRip database
Copy OK
Track 2
Filename H:\Andrea Centazzo Mitteleuropa Orchestra - The Complete Recordings Vol. 2 (2007) [FLAC]\02 - Satori for Large Ensemble - II Movement.wav
Peak level 100.0 %
Track quality 100.0 %
Test CRC A91DD3C9
Copy CRC A91DD3C9
Track not present in AccurateRip database
Copy OK
None of the tracks are present in the AccurateRip database
No errors occurred
End of status report
--------------------
Exact Audio Copy V0.99 prebeta 5 from 4. May 2009
EAC extraction logfile from 21. November 2009, 14:18
Andrea Centazzo Mitteleuropa Orchestra / The Complete Recordings Vol. 3
Used drive : PLEXTOR DVDR PX-760A Adapter: 0 ID: 0
Read mode : Secure
Utilize accurate stream : Yes
Defeat audio cache : Yes
Make use of C2 pointers : No
Read offset correction : 30
Overread into Lead-In and Lead-Out : Yes
Fill up missing offset samples with silence : Yes
Delete leading and trailing silent blocks : No
Null samples used in CRC calculations : Yes
Used interface : Native Win32 interface for Win NT & 2000
Gap handling : Appended to previous track
Used output format : User Defined Encoder
Selected bitrate : 128 kBit/s
Quality : High
Add ID3 tag : No
Command line compressor : C:\Program Files\FLAC\bin\flac.exe
Additional command line options : -8 -V -T "ARTIST=%a" -T "TITLE=%t" -T "ALBUM=%g" -T "DATE=%y" -T "TRACKNUMBER=%n" -T "GENRE=%m" %s
TOC of the extracted CD
Track | Start | Length | Start sector | End sector
---------------------------------------------------------
1 | 0:00.00 | 17:28.03 | 0 | 78602
2 | 17:28.03 | 8:08.00 | 78603 | 115202
3 | 25:36.03 | 14:36.36 | 115203 | 180938
4 | 40:12.39 | 12:42.04 | 180939 | 238092
Track 1
Filename H:\Andrea Centazzo Mitteleuropa Orchestra - The Complete Recordings Vol. 3 (2007) [FLAC]\01 - The Radio Session #1.wav
Pre-gap length 0:00:02.00
Peak level 79.4 %
Track quality 100.0 %
Test CRC DB6D195C
Copy CRC DB6D195C
Track not present in AccurateRip database
Copy OK
Track 2
Filename H:\Andrea Centazzo Mitteleuropa Orchestra - The Complete Recordings Vol. 3 (2007) [FLAC]\02 - The Radio Session #2.wav
Peak level 96.5 %
Track quality 100.0 %
Test CRC BD75D02C
Copy CRC BD75D02C
Track not present in AccurateRip database
Copy OK
Track 3
Filename H:\Andrea Centazzo Mitteleuropa Orchestra - The Complete Recordings Vol. 3 (2007) [FLAC]\03 - The Radio Session #3.wav
Peak level 87.7 %
Track quality 100.0 %
Test CRC F7A80CD8
Copy CRC F7A80CD8
Track not present in AccurateRip database
Copy OK
Track 4
Filename H:\Andrea Centazzo Mitteleuropa Orchestra - The Complete Recordings Vol. 3 (2007) [FLAC]\04 - The Radio Session #4.wav
Peak level 99.9 %
Track quality 99.9 %
Test CRC 3D4D467F
Copy CRC 3D4D467F
Track not present in AccurateRip database
Copy OK
None of the tracks are present in the AccurateRip database
No errors occurred
End of status report
--------------------
Exact Audio Copy V0.99 prebeta 5 from 4. May 2009
EAC extraction logfile from 21. November 2009, 14:39
Andrea Centazzo Mitteleuropa Orchestra / The Complete Recordings Vol. 4
Used drive : PLEXTOR DVDR PX-760A Adapter: 0 ID: 0
Read mode : Secure
Utilize accurate stream : Yes
Defeat audio cache : Yes
Make use of C2 pointers : No
Read offset correction : 30
Overread into Lead-In and Lead-Out : Yes
Fill up missing offset samples with silence : Yes
Delete leading and trailing silent blocks : No
Null samples used in CRC calculations : Yes
Used interface : Native Win32 interface for Win NT & 2000
Gap handling : Appended to previous track
Used output format : User Defined Encoder
Selected bitrate : 128 kBit/s
Quality : High
Add ID3 tag : No
Command line compressor : C:\Program Files\FLAC\bin\flac.exe
Additional command line options : -8 -V -T "ARTIST=%a" -T "TITLE=%t" -T "ALBUM=%g" -T "DATE=%y" -T "TRACKNUMBER=%n" -T "GENRE=%m" %s
TOC of the extracted CD
Track | Start | Length | Start sector | End sector
---------------------------------------------------------
1 | 0:00.00 | 15:34.16 | 0 | 70065
2 | 15:34.16 | 17:55.10 | 70066 | 150700
3 | 33:29.26 | 18:03.36 | 150701 | 231961
Track 1
Filename H:\Andrea Centazzo Mitteleuropa Orchestra - The Complete Recordings Vol. 4 (2007) [FLAC]\01 - The Orchestral Dharma - I Movement.wav
Pre-gap length 0:00:02.00
Peak level 64.4 %
Track quality 100.0 %
Test CRC 902E6A6B
Copy CRC 902E6A6B
Track not present in AccurateRip database
Copy OK
Track 2
Filename H:\Andrea Centazzo Mitteleuropa Orchestra - The Complete Recordings Vol. 4 (2007) [FLAC]\02 - The Orchestral Dharma - II Movement.wav
Peak level 86.0 %
Track quality 100.0 %
Test CRC 7FD3ED07
Copy CRC 7FD3ED07
Track not present in AccurateRip database
Copy OK
Track 3
Filename H:\Andrea Centazzo Mitteleuropa Orchestra - The Complete Recordings Vol. 4 (2007) [FLAC]\03 - The Orchestral Dharma - III Movement.wav
Peak level 96.5 %
Track quality 100.0 %
Test CRC 66F54E4C
Copy CRC 66F54E4C
Track not present in AccurateRip database
Copy OK
None of the tracks are present in the AccurateRip database
No errors occurred
End of status report
--------------------
Exact Audio Copy V0.99 prebeta 5 from 4. May 2009
EAC extraction logfile from 21. November 2009, 15:55
Andrea Centazzo Mitteleuropa Orchestra / The Complete Recordings Vol. 5
Used drive : PLEXTOR DVDR PX-760A Adapter: 0 ID: 0
Read mode : Secure
Utilize accurate stream : Yes
Defeat audio cache : Yes
Make use of C2 pointers : No
Read offset correction : 30
Overread into Lead-In and Lead-Out : Yes
Fill up missing offset samples with silence : Yes
Delete leading and trailing silent blocks : No
Null samples used in CRC calculations : Yes
Used interface : Native Win32 interface for Win NT & 2000
Gap handling : Appended to previous track
Used output format : User Defined Encoder
Selected bitrate : 128 kBit/s
Quality : High
Add ID3 tag : No
Command line compressor : C:\Program Files\FLAC\bin\flac.exe
Additional command line options : -8 -V -T "ARTIST=%a" -T "TITLE=%t" -T "ALBUM=%g" -T "DATE=%y" -T "TRACKNUMBER=%n" -T "GENRE=%m" %s
TOC of the extracted CD
Track | Start | Length | Start sector | End sector
---------------------------------------------------------
1 | 0:00.00 | 8:34.08 | 0 | 38557
2 | 8:34.08 | 7:08.23 | 38558 | 70680
3 | 15:42.31 | 14:05.24 | 70681 | 134079
4 | 29:47.55 | 8:18.49 | 134080 | 171478
5 | 38:06.29 | 13:29.53 | 171479 | 232206
Track 1
Filename H:\Andrea Centazzo Mitteleuropa Orchestra - The Complete Recordings Vol. 5 (2007) [FLAC]\01 - Samudaya - I Movement.wav
Pre-gap length 0:00:02.00
Peak level 96.5 %
Track quality 100.0 %
Test CRC E706A4F1
Copy CRC E706A4F1
Track not present in AccurateRip database
Copy OK
Track 2
Filename H:\Andrea Centazzo Mitteleuropa Orchestra - The Complete Recordings Vol. 5 (2007) [FLAC]\02 - Samudaya - II Movement.wav
Peak level 96.5 %
Track quality 100.0 %
Test CRC 13AC3A30
Copy CRC 13AC3A30
Track not present in AccurateRip database
Copy OK
Track 3
Filename H:\Andrea Centazzo Mitteleuropa Orchestra - The Complete Recordings Vol. 5 (2007) [FLAC]\03 - Samudaya - III Movement.wav
Peak level 90.9 %
Track quality 100.0 %
Test CRC BAC3AD4F
Copy CRC BAC3AD4F
Track not present in AccurateRip database
Copy OK
Track 4
Filename H:\Andrea Centazzo Mitteleuropa Orchestra - The Complete Recordings Vol. 5 (2007) [FLAC]\04 - Samudaya - IV Movement.wav
Peak level 95.8 %
Track quality 100.0 %
Test CRC 3C81A3C8
Copy CRC 3C81A3C8
Track not present in AccurateRip database
Copy OK
Track 5
Filename H:\Andrea Centazzo Mitteleuropa Orchestra - The Complete Recordings Vol. 5 (2007) [FLAC]\05 - Samudaya - V Movement.wav
Peak level 86.0 %
Track quality 100.0 %
Test CRC E2F2DAD0
Copy CRC E2F2DAD0
Track not present in AccurateRip database
Copy OK
None of the tracks are present in the AccurateRip database
No errors occurred
End of status report
--------------------
Exact Audio Copy V0.99 prebeta 5 from 4. May 2009
EAC extraction logfile from 21. November 2009, 16:15
Andrea Centazzo Mitteleuropa Orchestra / The Complete Recordings Vol. 6
Used drive : PLEXTOR DVDR PX-760A Adapter: 0 ID: 0
Read mode : Secure
Utilize accurate stream : Yes
Defeat audio cache : Yes
Make use of C2 pointers : No
Read offset correction : 30
Overread into Lead-In and Lead-Out : Yes
Fill up missing offset samples with silence : Yes
Delete leading and trailing silent blocks : No
Null samples used in CRC calculations : Yes
Used interface : Native Win32 interface for Win NT & 2000
Gap handling : Appended to previous track
Used output format : User Defined Encoder
Selected bitrate : 128 kBit/s
Quality : High
Add ID3 tag : No
Command line compressor : C:\Program Files\FLAC\bin\flac.exe
Additional command line options : -8 -V -T "ARTIST=%a" -T "TITLE=%t" -T "ALBUM=%g" -T "DATE=%y" -T "TRACKNUMBER=%n" -T "GENRE=%m" %s
TOC of the extracted CD
Track | Start | Length | Start sector | End sector
---------------------------------------------------------
1 | 0:00.00 | 17:20.17 | 0 | 78016
2 | 17:20.17 | 6:35.35 | 78017 | 107676
3 | 23:55.52 | 11:12.21 | 107677 | 158097
4 | 35:07.73 | 18:20.53 | 158098 | 240650
5 | 53:28.51 | 5:18.33 | 240651 | 264533
6 | 58:47.09 | 3:54.57 | 264534 | 282140
7 | 62:41.66 | 7:24.39 | 282141 | 315479
Track 1
Filename H:\Andrea Centazzo Mitteleuropa Orchestra - The Complete Recordings Vol. 6 (2007) [FLAC]\01 - In the Daisy Garden Suite - I Movement.wav
Pre-gap length 0:00:02.00
Peak level 96.5 %
Track quality 100.0 %
Test CRC 1194B069
Copy CRC 1194B069
Track not present in AccurateRip database
Copy OK
Track 2
Filename H:\Andrea Centazzo Mitteleuropa Orchestra - The Complete Recordings Vol. 6 (2007) [FLAC]\02 - In the Daisy Garden Suite - II Movement.wav
Peak level 96.6 %
Track quality 99.9 %
Test CRC B5363AFA
Copy CRC B5363AFA
Track not present in AccurateRip database
Copy OK
Track 3
Filename H:\Andrea Centazzo Mitteleuropa Orchestra - The Complete Recordings Vol. 6 (2007) [FLAC]\03 - In the Daisy Garden Suite - III Movement.wav
Peak level 100.0 %
Track quality 100.0 %
Test CRC DF847C34
Copy CRC DF847C34
Track not present in AccurateRip database
Copy OK
Track 4
Filename H:\Andrea Centazzo Mitteleuropa Orchestra - The Complete Recordings Vol. 6 (2007) [FLAC]\04 - In the Daisy Garden Suite - IV Movement.wav
Peak level 97.4 %
Track quality 100.0 %
Test CRC 3CC07CC2
Copy CRC 3CC07CC2
Track not present in AccurateRip database
Copy OK
Track 5
Filename H:\Andrea Centazzo Mitteleuropa Orchestra - The Complete Recordings Vol. 6 (2007) [FLAC]\05 - In the Daisy Garden Suite - V Movement.wav
Peak level 96.5 %
Track quality 99.9 %
Test CRC DAD09A8E
Copy CRC DAD09A8E
Track not present in AccurateRip database
Copy OK
Track 6
Filename H:\Andrea Centazzo Mitteleuropa Orchestra - The Complete Recordings Vol. 6 (2007) [FLAC]\06 - Jazz Suite for Duke - I Movement.wav
Peak level 86.0 %
Track quality 99.9 %
Test CRC 80BAC095
Copy CRC 80BAC095
Track not present in AccurateRip database
Copy OK
Track 7
Filename H:\Andrea Centazzo Mitteleuropa Orchestra - The Complete Recordings Vol. 6 (2007) [FLAC]\07 - Jazz Suite for Duke - II Movement.wav
Peak level 96.4 %
Track quality 100.0 %
Test CRC 9DD5D09C
Copy CRC 9DD5D09C
Track not present in AccurateRip database
Copy OK
None of the tracks are present in the AccurateRip database
No errors occurred
End of status report
 
Содержание индексной карты (.CUE) диск 1
REM GENRE Jazz
REM DATE 2007
REM DISCID 1D0C3003
REM COMMENT "ExactAudioCopy v0.99pb5"
PERFORMER "Andrea Centazzo Mitteleuropa Orchestra"
TITLE "The Complete Recording Vol. 1"
FILE "01 - Echoes for Large Ensemble - I Movement.wav" WAVE
TRACK 01 AUDIO
TITLE "Echoes for Large Ensemble - I Movement"
PERFORMER "Andrea Centazzo Mitteleuropa Orchestra"
INDEX 01 00:00:00
FILE "02 - Echoes for Large Ensemble - II Movement.wav" WAVE
TRACK 02 AUDIO
TITLE "Echoes for Large Ensemble - II Movement"
PERFORMER "Andrea Centazzo Mitteleuropa Orchestra"
INDEX 01 00:00:00
FILE "03 - Echoes for Large Ensemble - III Movement.wav" WAVE
TRACK 03 AUDIO
TITLE "Echoes for Large Ensemble - III Movement"
PERFORMER "Andrea Centazzo Mitteleuropa Orchestra"
INDEX 01 00:00:00
 
Содержание индексной карты (.CUE) диск 2
REM GENRE Jazz
REM DATE 2007
REM DISCID 0E0BCD02
REM COMMENT "ExactAudioCopy v0.99pb5"
PERFORMER "Andrea Centazzo Mitteleuropa Orchestra"
TITLE "The Complete Recording Vol. 2"
FILE "01 - Satori for Large Ensemble - I Movement.wav" WAVE
TRACK 01 AUDIO
TITLE "Satori for Large Ensemble - I Movement"
PERFORMER "Andrea Centazzo Mitteleuropa Orchestra"
INDEX 01 00:00:00
FILE "02 - Satori for Large Ensemble - II Movement.wav" WAVE
TRACK 02 AUDIO
TITLE "Satori for Large Ensemble - II Movement"
PERFORMER "Andrea Centazzo Mitteleuropa Orchestra"
INDEX 01 00:00:00
 
Содержание индексной карты (.CUE) диск 3
REM GENRE Jazz
REM DATE 2007
REM DISCID 240C6604
REM COMMENT "ExactAudioCopy v0.99pb5"
PERFORMER "Andrea Centazzo Mitteleuropa Orchestra"
TITLE "The Complete Recording Vol. 3"
FILE "01 - The Radio Session #1.wav" WAVE
TRACK 01 AUDIO
TITLE "The Radio Session #1"
PERFORMER "Andrea Centazzo Mitteleuropa Orchestra"
INDEX 01 00:00:00
FILE "02 - The Radio Session #2.wav" WAVE
TRACK 02 AUDIO
TITLE "The Radio Session #2"
PERFORMER "Andrea Centazzo Mitteleuropa Orchestra"
INDEX 01 00:00:00
FILE "03 - The Radio Session #3.wav" WAVE
TRACK 03 AUDIO
TITLE "The Radio Session #3"
PERFORMER "Andrea Centazzo Mitteleuropa Orchestra"
INDEX 01 00:00:00
FILE "04 - The Radio Session #4.wav" WAVE
TRACK 04 AUDIO
TITLE "The Radio Session #4"
PERFORMER "Andrea Centazzo Mitteleuropa Orchestra"
INDEX 01 00:00:00
 
Содержание индексной карты (.CUE) диск 4
REM GENRE Jazz
REM DATE 2007
REM DISCID 180C1403
REM COMMENT "ExactAudioCopy v0.99pb5"
PERFORMER "Andrea Centazzo Mitteleuropa Orchestra"
TITLE "The Complete Recording Vol. 4"
FILE "Andrea Centazzo Mitteleuropa Orchestra - The Complete Recordings Vol. 4 (2007) [FLAC]\01 - The Orchestral Dharma - I Movement.wav" WAVE
TRACK 01 AUDIO
TITLE "The Orchestral Dharma - I Movement"
PERFORMER "Andrea Centazzo Mitteleuropa Orchestra"
INDEX 01 00:00:00
FILE "Andrea Centazzo Mitteleuropa Orchestra - The Complete Recordings Vol. 4 (2007) [FLAC]\02 - The Orchestral Dharma - II Movement.wav" WAVE
TRACK 02 AUDIO
TITLE "The Orchestral Dharma - II Movement"
PERFORMER "Andrea Centazzo Mitteleuropa Orchestra"
INDEX 01 00:00:00
FILE "Andrea Centazzo Mitteleuropa Orchestra - The Complete Recordings Vol. 4 (2007) [FLAC]\03 - The Orchestral Dharma - III Movement.wav" WAVE
TRACK 03 AUDIO
TITLE "The Orchestral Dharma - III Movement"
PERFORMER "Andrea Centazzo Mitteleuropa Orchestra"
INDEX 01 00:00:00
 
Содержание индексной карты (.CUE) диск 5
REM GENRE Jazz
REM DATE 2007
REM DISCID 4C0C1805
REM COMMENT "ExactAudioCopy v0.99pb5"
PERFORMER "Andrea Centazzo Mitteleuropa Orchestra"
TITLE "The Complete Recording Vol. 5"
FILE "01 - Samudaya - I Movement.wav" WAVE
TRACK 01 AUDIO
TITLE "Samudaya - I Movement"
PERFORMER "Andrea Centazzo Mitteleuropa Orchestra"
INDEX 01 00:00:00
FILE "02 - Samudaya - II Movement.wav" WAVE
TRACK 02 AUDIO
TITLE "Samudaya - II Movement"
PERFORMER "Andrea Centazzo Mitteleuropa Orchestra"
INDEX 01 00:00:00
FILE "03 - Samudaya - III Movement.wav" WAVE
TRACK 03 AUDIO
TITLE "Samudaya - III Movement"
PERFORMER "Andrea Centazzo Mitteleuropa Orchestra"
INDEX 01 00:00:00
FILE "04 - Samudaya - IV Movement.wav" WAVE
TRACK 04 AUDIO
TITLE "Samudaya - IV Movement"
PERFORMER "Andrea Centazzo Mitteleuropa Orchestra"
INDEX 01 00:00:00
FILE "05 - Samudaya - V Movement.wav" WAVE
TRACK 05 AUDIO
TITLE "Samudaya - V Movement"
PERFORMER "Andrea Centazzo Mitteleuropa Orchestra"
INDEX 01 00:00:00
 
Содержание индексной карты (.CUE) диск 6
REM GENRE Jazz
REM DATE 2007
REM DISCID 50106E07
REM COMMENT "ExactAudioCopy v0.99pb5"
PERFORMER "Andrea Centazzo Mitteleuropa Orchestra"
TITLE "The Complete Recording Vol. 6"
FILE "01 - In the Daisy Garden Suite - I Movement.wav" WAVE
TRACK 01 AUDIO
TITLE "In the Daisy Garden Suite - I Movement"
PERFORMER "Andrea Centazzo Mitteleuropa Orchestra"
INDEX 01 00:00:00
FILE "02 - In the Daisy Garden Suite - II Movement.wav" WAVE
TRACK 02 AUDIO
TITLE "In the Daisy Garden Suite - II Movement"
PERFORMER "Andrea Centazzo Mitteleuropa Orchestra"
INDEX 01 00:00:00
FILE "03 - In the Daisy Garden Suite - III Movement.wav" WAVE
TRACK 03 AUDIO
TITLE "In the Daisy Garden Suite - III Movement"
PERFORMER "Andrea Centazzo Mitteleuropa Orchestra"
INDEX 01 00:00:00
FILE "04 - In the Daisy Garden Suite - IV Movement.wav" WAVE
TRACK 04 AUDIO
TITLE "In the Daisy Garden Suite - IV Movement"
PERFORMER "Andrea Centazzo Mitteleuropa Orchestra"
INDEX 01 00:00:00
FILE "05 - In the Daisy Garden Suite - V Movement.wav" WAVE
TRACK 05 AUDIO
TITLE "In the Daisy Garden Suite - V Movement"
PERFORMER "Andrea Centazzo Mitteleuropa Orchestra"
INDEX 01 00:00:00
FILE "06 - Jazz Suite for Duke - I Movement.wav" WAVE
TRACK 06 AUDIO
TITLE "Jazz Suite for Duke - I Movement"
PERFORMER "Andrea Centazzo Mitteleuropa Orchestra"
INDEX 01 00:00:00
FILE "07 - Jazz Suite for Duke - II Movement.wav" WAVE
TRACK 07 AUDIO
TITLE "Jazz Suite for Duke - II Movement"
PERFORMER "Andrea Centazzo Mitteleuropa Orchestra"
INDEX 01 00:00:00
Доп. информация: Recorded live in Rome, Bologna, Alassio, Sassuolo, Torino, Ravenna, Italy between June 1979 and July 1983
All tracks digitally remastered & edited by Andrea Centazzo, 2006
Produced by Andrea Centazzo
2007, ICTUS Box Set 501
 
Состав
Franz Koglmann - flugelhorn, trumpet
Carlos Zingaro - violin
Gianluigi Trovesi - bass clarinet, alto sax
Theo Jorgensmann - clarinet
Radu Malfatti - trombone
Gino Commisso - trumpet
Carlo Actis Dato - bass clarinet, baritone sax
Roberto Ottaviano - soprano saxes
Sauro D'Angelo - clarinet, alto sax
Roberto Manuzzi - soprano & alto saxes
Andrea Anzola - French horn
Stefano Stagni - French horn
Roberto Bartoli - bass
Stefano Ferri - bass
Franco Feruglio - bass
Bruno Cabassi - percussion
Gianpaolo Salbego - percussion
Guido Vianello - percussion
Paolo Zanella - percussion
Piero Bertelli - percussion
Andrea Centazzo - drums, percussion, conductor
Any questions -> support@pro-jazz.com. По всем вопросам пишите -> support@pro-jazz.com
19:55
202
Нет комментариев. Ваш будет первым!