Вы используете незарегистрированную версию компонента "Вкладки"!

Поиск

(Free Jazz, Contemporary Jazz, Free Improvisation) Ab Baars Trio + Roswell Rudd - Four - 2001, FLAC (image+.cue), lossless

(Free Jazz, Contemporary Jazz, Free Improvisation) Ab Baars Trio + Roswell Rudd - Four - 2001, FLAC (image+.cue), lossless
Треклист:
Ab Baars Trio + Roswell Rudd / Four
Жанр: Free Jazz, Contemporary Jazz, Free Improvisation
Страна-производитель диска: Netherlands
Год издания диска: 2001
Издатель (лейбл): DATA Records
Номер по каталогу: DATA 012
Аудиокодек: FLAC (*.flac)
Тип рипа: image+.cue
Битрейт аудио: lossless
Продолжительность: 59:52
Источник (релизер): cd
Наличие сканов в содержимом раздачи: нет
Треклист:
1 Miff 5:43
2 Boo And Milly's Marching Band 5:18
3 Pound's Stolen Mountain 5:37
4 Truisch 7:28
5 Song 8:58
The Year Was 1503
6 The Hotel Drummer 6:00
7 The Horsehead Fiddler 5:08
8 Big Eye Louis Nelson 6:30
9 Bartolomeo Tromboncino 9:06
 
Лог создания рипа
Exact Audio Copy V1.0 beta 2 from 29. April 2011
EAC extraction logfile from 19. December 2011, 23:07
Ab Baars Trio + Roswell Rudd / Four
Used drive : Optiarc DVD RW AD-7170A Adapter: 0 ID: 0
Read mode : Secure
Utilize accurate stream : Yes
Defeat audio cache : Yes
Make use of C2 pointers : No
Read offset correction : 48
Overread into Lead-In and Lead-Out : No
Fill up missing offset samples with silence : Yes
Delete leading and trailing silent blocks : No
Null samples used in CRC calculations : Yes
Used interface : Native Win32 interface for Win NT & 2000
Used output format : User Defined Encoder
Selected bitrate : 320 kBit/s
Quality : High
Add ID3 tag : No
Command line compressor : C:\Program Files\Exact Audio Copy\Flac\flac.exe
Additional command line options : -V -8 -T "Date=%year%" -T "Genre=%genre%" %source%
TOC of the extracted CD
Track | Start | Length | Start sector | End sector
---------------------------------------------------------
1 | 0:00.00 | 5:43.35 | 0 | 25759
2 | 5:43.35 | 5:18.29 | 25760 | 49638
3 | 11:01.64 | 5:37.38 | 49639 | 74951
4 | 16:39.27 | 7:28.67 | 74952 | 108618
5 | 24:08.19 | 8:58.49 | 108619 | 149017
6 | 33:06.68 | 6:00.20 | 149018 | 176037
7 | 39:07.13 | 5:08.10 | 176038 | 199147
8 | 44:15.23 | 6:30.56 | 199148 | 228453
9 | 50:46.04 | 9:06.65 | 228454 | 269468
Range status and errors
Selected range
Filename C:\EAC\Downloads\Ab Baars Trio + Roswell Rudd - Four.wav
Peak level 92.5 %
Extraction speed 1.9 X
Range quality 99.9 %
Test CRC 5F960C8C
Copy CRC 5F960C8C
Copy OK
No errors occurred
AccurateRip summary
Track 1 accurately ripped (confidence 2) [E0DEF263] (AR v1)
Track 2 accurately ripped (confidence 2) [C0092CC7] (AR v1)
Track 3 accurately ripped (confidence 2) [8A4CCADF] (AR v1)
Track 4 accurately ripped (confidence 2) [7F8E93C9] (AR v1)
Track 5 accurately ripped (confidence 2) [3883DAE3] (AR v1)
Track 6 accurately ripped (confidence 2) [F4E36417] (AR v1)
Track 7 accurately ripped (confidence 2) [20D9F7FC] (AR v1)
Track 8 accurately ripped (confidence 2) [C80863F8] (AR v1)
Track 9 accurately ripped (confidence 2) [D42B355C] (AR v1)
All tracks accurately ripped
End of status report
==== Log checksum 3F74A32F658FCA4459C1B2534BF2ADA44A869F15DFD55D679B6D8244DA25185E ====
 
Содержание индексной карты (.CUE)
REM GENRE Jazz
REM DATE 2001
REM DISCID 780E0809
REM COMMENT "ExactAudioCopy v1.0b2"
PERFORMER "Ab Baars Trio + Roswell Rudd"
TITLE "Four"
FILE "Ab Baars Trio + Roswell Rudd - Four.flac" WAVE
TRACK 01 AUDIO
TITLE "Miff"
PERFORMER "Ab Baars Trio + Roswell Rudd"
ISRC NLB970112001
INDEX 01 00:00:00
TRACK 02 AUDIO
TITLE "Boo And Milly's Marching Band"
PERFORMER "Ab Baars Trio + Roswell Rudd"
ISRC NLB970112002
INDEX 01 05:43:35
TRACK 03 AUDIO
TITLE "Pound's Stolen Mountain"
PERFORMER "Ab Baars Trio + Roswell Rudd"
ISRC NLB970112003
INDEX 01 11:01:64
TRACK 04 AUDIO
TITLE "Truisch"
PERFORMER "Ab Baars Trio + Roswell Rudd"
ISRC NLB970112004
INDEX 01 16:39:27
TRACK 05 AUDIO
TITLE "Song"
PERFORMER "Ab Baars Trio + Roswell Rudd"
ISRC NLB970112005
INDEX 01 24:08:19
TRACK 06 AUDIO
TITLE "The Hotel Drummer"
PERFORMER "Ab Baars Trio + Roswell Rudd"
ISRC NLB970112006
INDEX 01 33:06:68
TRACK 07 AUDIO
TITLE "The Horsehead Fiddler"
PERFORMER "Ab Baars Trio + Roswell Rudd"
ISRC NLB970112007
INDEX 01 39:07:13
TRACK 08 AUDIO
TITLE "Big Eye Louis Nelson"
PERFORMER "Ab Baars Trio + Roswell Rudd"
ISRC NLB970112008
INDEX 01 44:15:23
TRACK 09 AUDIO
TITLE "Bartolomeo Tromboncino"
PERFORMER "Ab Baars Trio + Roswell Rudd"
ISRC NLB970112009
INDEX 01 50:46:04
Доп. информация:
Recorded live at the BIMhuis Amsterdam, June 6, 1998
 
Состав
Double Bass – Wilbert De Joode
Drums – Martin Van Duynhoven
Tenor Saxophone, Clarinet – Ab Baars
Trombone – Roswell Rudd
Any questions -> support@pro-jazz.com. По всем вопросам пишите -> support@pro-jazz.com
19:56
159
Нет комментариев. Ваш будет первым!