Вы используете незарегистрированную версию компонента "Вкладки"!

Поиск

(Free Jazz, Free Bop, Avant-Garde Jazz) [CD] Charles Tyler - Folly Fun Magic Music - 1992, FLAC (tracks+.cue), lossless

(Free Jazz, Free Bop, Avant-Garde Jazz) [CD] Charles Tyler - Folly Fun Magic Music - 1992, FLAC (tracks+.cue), lossless
Треклист:
Charles Tyler / Folly Fun Magic Music
Жанр: Free Jazz, Free Bop, Avant-Garde Jazz
Носитель: CD
Страна-производитель диска: France
Год издания: 1992
Издатель (лейбл): Bleu Regard
Номер по каталогу: CT 1941
Страна: US, France
Аудиокодек: FLAC (*.flac)
Тип рипа: tracks+.cue
Битрейт аудио: lossless
Продолжительность: 55:35
Источник (релизер): свой фирменный диск
Наличие сканов в содержимом раздачи:
Треклист:
1. Ride Of The Phantom Politician (For Richard Wagner) 10:12
2. Just Me Luck (For Jean-Sebastien Bach) 3:35
3. She Caused His Soul To Fall 7:08
4. European Folk Outline 5:52
5. Shownee Indian Song 8:38
6. Star Ship Future Folk Music 9:28
7. Folly Fun Music Magic 6:20
8. Spanish Castle 4:05
 
Лог создания рипа
Exact Audio Copy V1.0 beta 3 from 29. August 2011
EAC extraction logfile from 9. April 2014, 20:10
Charles Tyler / Folly Fun Music Magic
Used drive : PIONEER DVD-RW DVR-115D Adapter: 0 ID: 0
Read mode : Secure
Utilize accurate stream : Yes
Defeat audio cache : Yes
Make use of C2 pointers : No
Read offset correction : 48
Overread into Lead-In and Lead-Out : No
Fill up missing offset samples with silence : Yes
Delete leading and trailing silent blocks : No
Null samples used in CRC calculations : Yes
Used interface : Installed external ASPI interface
Gap handling : Appended to previous track
Used output format : User Defined Encoder
Selected bitrate : 896 kBit/s
Quality : High
Add ID3 tag : No
Command line compressor : C:\Program Files\Exact Audio Copy\FLAC\FLAC.EXE
Additional command line options : -6 -V -T "ARTIST=%artist%" -T "TITLE=%title%" -T "ALBUM=%albumtitle%" -T "DATE=%year%" -T "TRACKNUMBER=%tracknr%" -T "GENRE=%genre%" -T "COMMENT=%comment%" -T "BAND=%albuminterpret%" -T "COMPOSER=%composer%" %haslyrics%--tag-from-file=LYRICS="%lyricsfile%"%haslyrics% -T "DISCNUMBER=%cdnumber%" -T "TOTALDISCS=%totalcds%" -T "TOTALTRACKS=%numtracks%" %hascover%--picture="%coverfile%"%hascover% %source% -o %dest%
TOC of the extracted CD
Track | Start | Length | Start sector | End sector
---------------------------------------------------------
1 | 0:00.32 | 10:17.63 | 32 | 46369
2 | 10:18.20 | 3:39.25 | 46370 | 62819
3 | 13:57.45 | 7:12.20 | 62820 | 95239
4 | 21:09.65 | 5:55.65 | 95240 | 121929
5 | 27:05.55 | 8:40.25 | 121930 | 160954
6 | 35:46.05 | 9:18.17 | 160955 | 202821
7 | 45:04.22 | 6:26.38 | 202822 | 231809
8 | 51:30.60 | 4:04.47 | 231810 | 250156
Track 1
Filename D:\zzz\01 - Ride Of The Phantom Politician.wav
Pre-gap length 0:00:02.32
Peak level 100.0 %
Extraction speed 4.8 X
Track quality 99.9 %
Test CRC 17C159FE
Copy CRC 17C159FE
Track not present in AccurateRip database
Copy OK
Track 2
Filename D:\zzz\02 - Just Me Luck.wav
Pre-gap length 0:00:04.07
Peak level 78.3 %
Extraction speed 5.3 X
Track quality 100.0 %
Test CRC B7388E8D
Copy CRC B7388E8D
Track not present in AccurateRip database
Copy OK
Track 3
Filename D:\zzz\03 - She Caused His Soul To Fall.wav
Pre-gap length 0:00:02.32
Peak level 100.0 %
Extraction speed 5.7 X
Track quality 99.9 %
Test CRC C504E019
Copy CRC C504E019
Track not present in AccurateRip database
Copy OK
Track 4
Filename D:\zzz\04 - European Folk Outline.wav
Pre-gap length 0:00:01.52
Peak level 98.7 %
Extraction speed 6.0 X
Track quality 99.9 %
Test CRC 0E04EB7C
Copy CRC 0E04EB7C
Track not present in AccurateRip database
Copy OK
Track 5
Filename D:\zzz\05 - Shownee Indian Song.wav
Pre-gap length 0:00:02.37
Peak level 99.9 %
Extraction speed 7.1 X
Track quality 100.0 %
Test CRC DA4ECCEC
Copy CRC DA4ECCEC
Track not present in AccurateRip database
Copy OK
Track 6
Filename D:\zzz\06 - Star Ship Future Folk Music.wav
Pre-gap length 0:00:01.45
Peak level 99.4 %
Extraction speed 6.0 X
Track quality 99.9 %
Test CRC 9652A242
Copy CRC 9652A242
Track not present in AccurateRip database
Copy OK
Track 7
Filename D:\zzz\07 - Folly Fun Music Magic.wav
Pre-gap length 0:00:02.27
Peak level 100.0 %
Extraction speed 8.1 X
Track quality 100.0 %
Test CRC D1B32744
Copy CRC D1B32744
Track not present in AccurateRip database
Copy OK
Track 8
Filename D:\zzz\08 - Spanish Castle.wav
Pre-gap length 0:00:02.60
Peak level 99.4 %
Extraction speed 8.0 X
Track quality 100.0 %
Test CRC 071327EB
Copy CRC 071327EB
Track not present in AccurateRip database
Copy OK
None of the tracks are present in the AccurateRip database
No errors occurred
End of status report
==== Log checksum 5BF5F6186CA5A4D9E6011C6068CACFCF9CFCB16DB0D262D95572FF5D84152C01 ====
 
Содержание индексной карты (.CUE)
REM GENRE "Contemporary Jazz"
REM DATE 1992
REM DISCID 650D0708
REM COMMENT "ExactAudioCopy v1.0b3"
PERFORMER "Charles Tyler"
TITLE "Folly Fun Music Magic"
FILE "01 - Ride Of The Phantom Politician.wav" WAVE
TRACK 01 AUDIO
TITLE "Ride Of The Phantom Politician"
PERFORMER "Charles Tyler"
PREGAP 00:00:32
INDEX 01 00:00:00
TRACK 02 AUDIO
TITLE "Just Me Luck"
PERFORMER "Charles Tyler"
INDEX 00 10:13:56
FILE "02 - Just Me Luck.wav" WAVE
INDEX 01 00:00:00
TRACK 03 AUDIO
TITLE "She Caused His Soul To Fall"
PERFORMER "Charles Tyler"
INDEX 00 03:36:68
FILE "03 - She Caused His Soul To Fall.wav" WAVE
INDEX 01 00:00:00
TRACK 04 AUDIO
TITLE "European Folk Outline"
PERFORMER "Charles Tyler"
INDEX 00 07:10:43
FILE "04 - European Folk Outline.wav" WAVE
INDEX 01 00:00:00
TRACK 05 AUDIO
TITLE "Shownee Indian Song"
PERFORMER "Charles Tyler"
INDEX 00 05:53:28
FILE "05 - Shownee Indian Song.wav" WAVE
INDEX 01 00:00:00
TRACK 06 AUDIO
TITLE "Star Ship Future Folk Music"
PERFORMER "Charles Tyler"
INDEX 00 08:38:55
FILE "06 - Star Ship Future Folk Music.wav" WAVE
INDEX 01 00:00:00
TRACK 07 AUDIO
TITLE "Folly Fun Music Magic"
PERFORMER "Charles Tyler"
INDEX 00 09:15:65
FILE "07 - Folly Fun Music Magic.wav" WAVE
INDEX 01 00:00:00
TRACK 08 AUDIO
TITLE "Spanish Castle"
PERFORMER "Charles Tyler"
INDEX 00 06:23:53
FILE "08 - Spanish Castle.wav" WAVE
INDEX 01 00:00:00
 
Лог проверки качества
d:\>d:\aucdtect -d/-m0 d:\zzz\*.wav
auCDtect: CD records authenticity detector, version 0.8.2
Copyright (c) 2004 Oleg Berngardt. All rights reserved.
Copyright (c) 2004 Alexander Djourik. All rights reserved.
------------------------------------------------------------
Processing file: [01. Ride Of The Phantom Politician.wav]
------------------------------------------------------------
This track looks like CDDA with probability 100%
------------------------------------------------------------
Processing file: [02. Just Me Luck.wav]
------------------------------------------------------------
This track looks like CDDA with probability 100%
------------------------------------------------------------
Processing file: [03. She Caused His Soul To Fall.wav]
------------------------------------------------------------
This track looks like CDDA with probability 99%
------------------------------------------------------------
Processing file: [04. European Folk Outline.wav]
------------------------------------------------------------
This track looks like CDDA with probability 100%
------------------------------------------------------------
Processing file: [05. Shownee Indian Song.wav]
------------------------------------------------------------
This track looks like CDDA with probability 100%
------------------------------------------------------------
Processing file: [06. Star Ship Future Folk Music.wav]
------------------------------------------------------------
This track looks like CDDA with probability 100%
------------------------------------------------------------
Processing file: [07. Folly Fun Music Magic.wav]
------------------------------------------------------------
This track looks like CDDA with probability 100%
------------------------------------------------------------
Processing file: [08. Spanish Castle.wav]
------------------------------------------------------------
This track looks like CDDA with probability 100%
------------------------------------------------------------
Final Conclusion:
------------------------------------------------------------
These tracks looks like CDDA with probability 100%
Доп. информация:
 
Album Info & AMG Review
All compositions by Charles Tyler, except 8., which is a creation by Bernard Santacruz and Charles Tyler.
Recorded live on digital two tracks by Gerard de Haro, Studio Aid, Pernes-Les-Fontaines, les 10, 11 Novembre 1990 et 26, 27 Fevrier 1992
Mixage: Gerard de Haro, assiste de Roger Amoros
Photos: Marie Cosenza (sauf C. Zagaria p. 4)
Graphisme: Francoise Legras
Production: La Nef des Musiques
Special thanks to Jean-Paul Gauvin, Serge Baudot et Marie Cosenza
Liner notes: Bernard Aime
Here is another of Charles Tyler's later recordings, made in France with a host of young cats enthralled to be playing with a bona fide '60s legend. Tyler as always is inspired and in good humor here. His music and arranging at its best soars to the same heights as Don Cherry's or Steve Lacy's or Dewey Redman's. And even with inexperienced sidemen, his music here soars. It's as if at the end of his life, Tyler was undergoing his own creative resurgence as a musician. The set begins here with "Ride of the Phantom Politician," dedicated to Wagner, and as you probably guessed, its opening melody quotes from the composer's "Ride of the Valkyries." But Tyler, twinned by bassist Bernard Santacruz, moves the middle eight into gorgeously melodic modal territory, invoking Eastern European folk songs, klezmer, and the blues in an attempt to set the record straight. His next piece, "Just Me Luck," with lovely guitar work by Remi Charmasson, quotes Bach's partitas, his court music, and his cello sonatas. What Tyler does with these bits isn't merely imitate them, he stretches them into heartbreakingly beautiful jazz balladry that is akin in spirit at least to Abdullah Ibrahim's. Tyler does this again and again, though the sources change -- they move from Shawnee Indian ballads and story songs to European and gypsy dance tunes to futuristic jazz as translated by P.T Barnum. In every case the approach is original and the attack soulful, without irony, artifice, bitterness, or cynicism. Folly Fun Magic Music may be the title of the album and one of its tunes, and it is fun. But more than that, it walks the edge of profundity.
 
Состав
Charles Tyler: composer, arranger, alto & tenor saxophones, harmonica, flute de pan, tambourin, voix
Bernard Santacruz: contrebasse
Remi Charmasson: guitare
Christian Zagaria: violon
Jean-Pierre Jullian: batterie
По всем вопросам пишите личное сообщение пользователю M0p94ok.
02:04
191
Нет комментариев. Ваш будет первым!