Вы используете незарегистрированную версию компонента "Вкладки"!

Поиск

(Free Jazz) [CD] Ornette Coleman - Something Else!!!! (1958) - 2011 {OJC Remasters Complete Series}, FLAC (tracks+.cue), lossless

(Free Jazz) [CD] Ornette Coleman - Something Else!!!! (1958) - 2011 {OJC Remasters Complete Series}, FLAC (tracks+.cue), lossless
Треклист:
Ornette Coleman - Something Else!!!! (1958)
Жанр: Free Jazz
Носитель: CD
Год издания: 2011
Издатель (лейбл): OJC/Contemporary/Concord
Номер по каталогу: 0888072328457
Аудиокодек: FLAC (*.flac)
Тип рипа: tracks+.cue
Битрейт аудио: lossless
Продолжительность: 42:46
Источник (релизер): ruskaval
Наличие сканов в содержимом раздачи: да
Треклист:
01. Invisible (4:16)
02. The Blessing (4:46)
03. Jayne (7:22)
04. Chippie (5:40)
05. The Disguise (2:51)
06. Angel Voice (4:21)
07. Alpha (4:14)
08. When Will The Blues Leave? (5:01)
09. The Sphinx (4:16)
Personnel:
Ornette Coleman - as
Don Cherry - tp
Walter Norris - p
Don Payne - b
Billy Higgins - d
 
 
Лог создания рипа
Exact Audio Copy V1.0 beta 3 from 29. August 2011
EAC extraction logfile from 17. May 2014, 1:31
Ornette Coleman / Something Else!!!
Used drive : ATAPI iHAS124 B Adapter: 2 ID: 1
Read mode : Secure
Utilize accurate stream : Yes
Defeat audio cache : Yes
Make use of C2 pointers : No
Read offset correction : 6
Overread into Lead-In and Lead-Out : No
Fill up missing offset samples with silence : Yes
Delete leading and trailing silent blocks : No
Null samples used in CRC calculations : Yes
Used interface : Native Win32 interface for Win NT & 2000
Gap handling : Appended to previous track
Used output format : User Defined Encoder
Selected bitrate : 1024 kBit/s
Quality : High
Add ID3 tag : No
Command line compressor : C:\Program Files (x86)\FLAC Frontend\tools\flac.exe
Additional command line options : -8 -V -T "ARTIST=%artist%" -T "TITLE=%title%" -T "ALBUM=%albumtitle%" -T "DATE=%year%" -T "TRACKNUMBER=%tracknr%" -T "TOTALTRACKS=%numtracks%" -T "GENRE=%genre%" -T "ALBUMARTIST=%albumartist%" -T "ALBUM ARTIST=%albumartist%" -T "COMMENT=EAC Secure Mode, Test & Copy, AccurateRip, FLAC -8" %source%
TOC of the extracted CD
Track | Start | Length | Start sector | End sector
---------------------------------------------------------
1 | 0:00.00 | 4:15.45 | 0 | 19169
2 | 4:15.45 | 4:46.20 | 19170 | 40639
3 | 9:01.65 | 7:22.17 | 40640 | 73806
4 | 16:24.07 | 5:40.18 | 73807 | 99324
5 | 22:04.25 | 2:50.38 | 99325 | 112112
6 | 24:54.63 | 4:21.20 | 112113 | 131707
7 | 29:16.08 | 4:13.39 | 131708 | 150721
8 | 33:29.47 | 5:00.53 | 150722 | 173274
9 | 38:30.25 | 4:15.59 | 173275 | 192458
Track 1
Filename C:\Ornette Coleman - Something Else!!! (1958) {2011 Contemporary} [OJC Remasters Complete Series]\01 - Invisible.wav
Pre-gap length 0:00:02.00
Peak level 84.1 %
Extraction speed 1.4 X
Track quality 99.9 %
Test CRC A6A13E83
Copy CRC A6A13E83
Accurately ripped (confidence 9) [211169AF] (AR v2)
Copy OK
Track 2
Filename C:\Ornette Coleman - Something Else!!! (1958) {2011 Contemporary} [OJC Remasters Complete Series]\02 - The Blessing.wav
Peak level 95.1 %
Extraction speed 2.1 X
Track quality 100.0 %
Test CRC 883D3645
Copy CRC 883D3645
Accurately ripped (confidence 9) [A3B931B0] (AR v2)
Copy OK
Track 3
Filename C:\Ornette Coleman - Something Else!!! (1958) {2011 Contemporary} [OJC Remasters Complete Series]\03 - Jayne.wav
Peak level 99.9 %
Extraction speed 2.1 X
Track quality 99.9 %
Test CRC 84A23C4B
Copy CRC 84A23C4B
Accurately ripped (confidence 9) [45B37335] (AR v2)
Copy OK
Track 4
Filename C:\Ornette Coleman - Something Else!!! (1958) {2011 Contemporary} [OJC Remasters Complete Series]\04 - Chippie.wav
Peak level 82.1 %
Extraction speed 2.7 X
Track quality 100.0 %
Test CRC 806FB4F6
Copy CRC 806FB4F6
Accurately ripped (confidence 9) [E91A719B] (AR v2)
Copy OK
Track 5
Filename C:\Ornette Coleman - Something Else!!! (1958) {2011 Contemporary} [OJC Remasters Complete Series]\05 - The Disguise.wav
Peak level 90.4 %
Extraction speed 2.6 X
Track quality 100.0 %
Test CRC BB70DAF4
Copy CRC BB70DAF4
Accurately ripped (confidence 9) [55B64828] (AR v2)
Copy OK
Track 6
Filename C:\Ornette Coleman - Something Else!!! (1958) {2011 Contemporary} [OJC Remasters Complete Series]\06 - Angel Voice.wav
Peak level 93.3 %
Extraction speed 2.2 X
Track quality 99.9 %
Test CRC 51721B8B
Copy CRC 51721B8B
Accurately ripped (confidence 8) [FD0ABE72] (AR v2)
Copy OK
Track 7
Filename C:\Ornette Coleman - Something Else!!! (1958) {2011 Contemporary} [OJC Remasters Complete Series]\07 - Alpha.wav
Peak level 92.2 %
Extraction speed 3.1 X
Track quality 100.0 %
Test CRC F5A1B118
Copy CRC F5A1B118
Accurately ripped (confidence 8) [5793A6E4] (AR v2)
Copy OK
Track 8
Filename C:\Ornette Coleman - Something Else!!! (1958) {2011 Contemporary} [OJC Remasters Complete Series]\08 - When Will The Blues Leave.wav
Peak level 99.8 %
Extraction speed 3.3 X
Track quality 100.0 %
Test CRC CCDFC063
Copy CRC CCDFC063
Accurately ripped (confidence 8) [81767D80] (AR v2)
Copy OK
Track 9
Filename C:\Ornette Coleman - Something Else!!! (1958) {2011 Contemporary} [OJC Remasters Complete Series]\09 - The Sphinx.wav
Peak level 88.7 %
Extraction speed 3.3 X
Track quality 100.0 %
Test CRC 90EFA7B5
Copy CRC 90EFA7B5
Accurately ripped (confidence 9) [62D5413A] (AR v2)
Copy OK
All tracks accurately ripped
No errors occurred
End of status report
==== Log checksum 646BAEB911563838EC445FA5C70034A3A91D3492E06279AB83F5EF07134C0CD8 ====
 
Содержание индексной карты (.CUE)
REM GENRE Jazz
REM DATE 1958
REM DISCID 740A0609
REM COMMENT "ExactAudioCopy v1.0b3"
PERFORMER "Ornette Coleman"
TITLE "Something Else!!!"
FILE "01 - Invisible.wav" WAVE
TRACK 01 AUDIO
TITLE "Invisible"
PERFORMER "Ornette Coleman"
INDEX 01 00:00:00
FILE "02 - The Blessing.wav" WAVE
TRACK 02 AUDIO
TITLE "The Blessing"
PERFORMER "Ornette Coleman"
INDEX 01 00:00:00
FILE "03 - Jayne.wav" WAVE
TRACK 03 AUDIO
TITLE "Jayne"
PERFORMER "Ornette Coleman"
INDEX 01 00:00:00
FILE "04 - Chippie.wav" WAVE
TRACK 04 AUDIO
TITLE "Chippie"
PERFORMER "Ornette Coleman"
INDEX 01 00:00:00
FILE "05 - The Disguise.wav" WAVE
TRACK 05 AUDIO
TITLE "The Disguise"
PERFORMER "Ornette Coleman"
INDEX 01 00:00:00
FILE "06 - Angel Voice.wav" WAVE
TRACK 06 AUDIO
TITLE "Angel Voice"
PERFORMER "Ornette Coleman"
INDEX 01 00:00:00
FILE "07 - Alpha.wav" WAVE
TRACK 07 AUDIO
TITLE "Alpha"
PERFORMER "Ornette Coleman"
INDEX 01 00:00:00
FILE "08 - When Will The Blues Leave.wav" WAVE
TRACK 08 AUDIO
TITLE "When Will The Blues Leave?"
PERFORMER "Ornette Coleman"
INDEX 01 00:00:00
FILE "09 - The Sphinx.wav" WAVE
TRACK 09 AUDIO
TITLE "The Sphinx"
PERFORMER "Ornette Coleman"
INDEX 01 00:00:00
По всем вопросам пишите личное сообщение пользователю M0p94ok.
02:04
131
Нет комментариев. Ваш будет первым!