Вы используете незарегистрированную версию компонента "Вкладки"!

Поиск

(Free Jazz, Experimental Jazz) [CD] The Hat City Intuitive - They Must Be Clapping For ... Me! - 2000, FLAC (image+.cue), lossless

(Free Jazz, Experimental Jazz) [CD] The Hat City Intuitive - They Must Be Clapping For ... Me! - 2000, FLAC (image+.cue), lossless
Треклист:
The Hat City Intuitive / They Must Be Clapping For ... Me!
Жанр: Free Jazz, Experimental Jazz
Носитель: CD
Страна-производитель диска (релиза): USA
Год издания: 2000
Издатель (лейбл): Crank Automotive
Номер по каталогу: CAR 10
Аудиокодек: FLAC (*.flac)
Тип рипа: image+.cue
Битрейт аудио: lossless
Продолжительность: 49:30
Источник (релизер): gssmg7
Наличие сканов в содержимом раздачи: да
Треклист:
1. Seward´s Volley
2. Rhinoplaster Blaster
3. Leeches To Lasers
4. Byzantine Best
5. Seal Needs A Horn
6. Anaconda Non-Withstanding
7. Interspecies Entanglements
8. Ornithopter
9. Ovolo Sticking
 
Лог создания рипа
Exact Audio Copy V1.0 beta 2 from 29. April 2011
EAC extraction logfile from 1. March 2016, 22:59
The Hat City Intuitive / They Must Be Clapping For. . .Me!
Used drive : Optiarc DVD RW AD-5280S Adapter: 1 ID: 1
Read mode : Secure
Utilize accurate stream : Yes
Defeat audio cache : Yes
Make use of C2 pointers : No
Read offset correction : 48
Overread into Lead-In and Lead-Out : No
Fill up missing offset samples with silence : Yes
Delete leading and trailing silent blocks : No
Null samples used in CRC calculations : Yes
Used interface : Installed external ASPI interface
Used output format : User Defined Encoder
Selected bitrate : 128 kBit/s
Quality : High
Add ID3 tag : No
Command line compressor : C:\Program Files\FLAC\flac.exe
Additional command line options : -V -8 -T "Genre=%genre%" -T "Artist=%artist%" -T "Title=%title%" -T "Album=%albumtitle%" -T "Date=%year%" -T "Tracknumber=%tracknr%" -T "Comment=%comment%" %source%
TOC of the extracted CD
Track | Start | Length | Start sector | End sector
---------------------------------------------------------
1 | 0:00.00 | 4:34.10 | 0 | 20559
2 | 4:34.10 | 9:59.22 | 20560 | 65506
3 | 14:33.32 | 5:08.12 | 65507 | 88618
4 | 19:41.44 | 4:12.48 | 88619 | 107566
5 | 23:54.17 | 3:58.08 | 107567 | 125424
6 | 27:52.25 | 4:41.45 | 125425 | 146544
7 | 32:33.70 | 5:31.03 | 146545 | 171372
8 | 38:04.73 | 8:16.31 | 171373 | 208603
9 | 46:21.29 | 3:09.00 | 208604 | 222778
Range status and errors
Selected range
Filename C:\The Hat City Intuitive (2000) - They Must Be Clapping For. . .Me!\The Hat City Intuitive (2000) - They Must Be Clapping For. . .Me!.wav
Peak level 93.7 %
Extraction speed 7.2 X
Range quality 99.9 %
Test CRC DF0AF285
Copy CRC DF0AF285
Copy OK
No errors occurred
AccurateRip summary
Track 1 not present in database
Track 2 not present in database
Track 3 not present in database
Track 4 not present in database
Track 5 not present in database
Track 6 not present in database
Track 7 not present in database
Track 8 not present in database
Track 9 not present in database
None of the tracks are present in the AccurateRip database
End of status report
==== Log checksum D9A3C3681204D3D3583E451D2C4AC378BE25DC2D8F9E1B4AE62A20C57F359791 ====
 
Содержание индексной карты (.CUE)
REM GENRE Jazz
REM DATE 2000
REM DISCID 8C0B9A09
REM COMMENT "ExactAudioCopy v1.0b2"
PERFORMER "The Hat City Intuitive"
TITLE "They Must Be Clapping For. . .Me!"
FILE "The Hat City Intuitive (2000) - They Must Be Clapping For. . .Me!.flac" WAVE
TRACK 01 AUDIO
TITLE "Seward's Volley"
PERFORMER "The Hat City Intuitive"
FLAGS DCP
INDEX 01 00:00:00
TRACK 02 AUDIO
TITLE "Rhinoplaster Blaster"
PERFORMER "The Hat City Intuitive"
FLAGS DCP
INDEX 00 04:31:10
INDEX 01 04:34:10
TRACK 03 AUDIO
TITLE "Leeches to Lasers"
PERFORMER "The Hat City Intuitive"
FLAGS DCP
INDEX 00 14:30:31
INDEX 01 14:33:32
TRACK 04 AUDIO
TITLE "Byzantine Best"
PERFORMER "The Hat City Intuitive"
FLAGS DCP
INDEX 00 19:38:44
INDEX 01 19:41:44
TRACK 05 AUDIO
TITLE "Seal Needs A Horn"
PERFORMER "The Hat City Intuitive"
FLAGS DCP
INDEX 00 23:51:16
INDEX 01 23:54:17
TRACK 06 AUDIO
TITLE "Anaconda Non - Withstanding"
PERFORMER "The Hat City Intuitive"
FLAGS DCP
INDEX 00 27:49:24
INDEX 01 27:52:25
TRACK 07 AUDIO
TITLE "Interspecies Entanglement"
PERFORMER "The Hat City Intuitive"
FLAGS DCP
INDEX 00 32:30:70
INDEX 01 32:33:70
TRACK 08 AUDIO
TITLE "Ornitopter"
PERFORMER "The Hat City Intuitive"
FLAGS DCP
INDEX 00 38:01:72
INDEX 01 38:04:73
TRACK 09 AUDIO
TITLE "Ovolo Sticking"
PERFORMER "The Hat City Intuitive"
FLAGS DCP
INDEX 00 46:18:28
INDEX 01 46:21:29
 
Состав
The HCI consists of: Gayle 4ce Arrays (aka Greg Vegas, aka The Ditchmaster, aka Thoroughly At-Laffed), Christopher Ludwig, Amos Ananda, Manny Spaceships and Leak Higgins. They used electronics, saxophones, guitars, basses, drums and cymbals.
По всем вопросам пишите личное сообщение пользователю M0p94ok.
19:08
203
Нет комментариев. Ваш будет первым!