Вы используете незарегистрированную версию компонента "Вкладки"!

Поиск

(Avant-Garde Jazz, Chamber Jazz) [CD] Daniel Levin & Mat Maneri - The Transcendent Function - 2015, FLAC (tracks+.cue), lossless

(Avant-Garde Jazz, Chamber Jazz) [CD] Daniel Levin & Mat Maneri - The Transcendent Function - 2015, FLAC (tracks+.cue), lossless
Треклист:
THE TRANSCENDENT FUNCTION ' DANIEL LEVIN ' MAT MANERI'
'
Жанр: Avant-Garde Jazz, Chamber Jazz
Страна-производитель диска: Portugal
Год издания: 2015
Издатель (лейбл): Clean Feed
Номер по каталогу: CF 351
Страна исполнителя: USA
Аудиокодек: FLAC (*.flac)
Тип рипа: tracks+.cue
Битрейт аудио: lossless
Продолжительность: 48:14
Источник (релизер): спасибо 6060842
Наличие сканов: нет
Треклист:
1. Contemporary Improvisation
2. Soul
3. Flight
4. Coelacanth
5. Rhizome
6. Sad Song
 
Лог создания рипа
X Lossless Decoder version 20151214 (149.1)
XLD extraction logfile from 2015-12-24 05:34:33 +0300
Daniel Levin, Mat Maneri / The Transcendent Function
Used drive : HL-DT-ST DVDRW GX30N (revision RP09)
Media type : Pressed CD
Ripper mode : XLD Secure Ripper
Disable audio cache : OK for the drive with a cache less than 1375KiB
Make use of C2 pointers : NO
Read offset correction : 6
Max retry count : 100
Gap status : Analyzed, Appended (except HTOA)
TOC of the extracted CD
Track | Start | Length | Start sector | End sector
---------------------------------------------------------
1 | 00:00:00 | 15:05:69 | 0 | 67943
2 | 15:05:69 | 06:58:53 | 67944 | 99346
3 | 22:04:47 | 04:03:09 | 99347 | 117580
4 | 26:07:56 | 08:34:05 | 117581 | 156135
5 | 34:41:61 | 07:28:32 | 156136 | 189767
6 | 42:10:18 | 06:04:43 | 189768 | 217110
AccurateRip Summary
Disc not found in AccurateRip DB.
All Tracks
Album gain : -1.15 dB
Peak : 0.980865
Statistics
Read error : 0
Jitter error (maybe fixed) : 0
Retry sector count : 0
Damaged sector count : 0
Track 01
Filename : /Users/anch/Music/Grabbed/Daniel Levin, Mat Maneri/F 2015 - The Transcendent Function/01 - Contemporary Improvisation.flac
Pre-gap length : 00:02:00
Track gain : -2.62 dB
Peak : 0.980865
CRC32 hash (test run) : 85A9FA40
CRC32 hash : 85A9FA40
CRC32 hash (skip zero) : 7E76602D
AccurateRip v1 signature : 8FFE5048
AccurateRip v2 signature : 204C99A3
->Track not present in AccurateRip database.
Statistics
Read error : 0
Jitter error (maybe fixed) : 0
Retry sector count : 0
Damaged sector count : 0
Track 02
Filename : /Users/anch/Music/Grabbed/Daniel Levin, Mat Maneri/F 2015 - The Transcendent Function/02 - Soul.flac
Track gain : 1.92 dB
Peak : 0.850983
CRC32 hash (test run) : 9C17EB08
CRC32 hash : 9C17EB08
CRC32 hash (skip zero) : B292B4C6
AccurateRip v1 signature : D5A53C19
AccurateRip v2 signature : 6DDD3F2C
->Track not present in AccurateRip database.
Statistics
Read error : 0
Jitter error (maybe fixed) : 0
Retry sector count : 0
Damaged sector count : 0
Track 03
Filename : /Users/anch/Music/Grabbed/Daniel Levin, Mat Maneri/F 2015 - The Transcendent Function/03 - Flight.flac
Track gain : -3.57 dB
Peak : 0.980408
CRC32 hash (test run) : 879F65A6
CRC32 hash : 879F65A6
CRC32 hash (skip zero) : B2FB5ED2
AccurateRip v1 signature : F8D53903
AccurateRip v2 signature : 204EB7D9
->Track not present in AccurateRip database.
Statistics
Read error : 0
Jitter error (maybe fixed) : 0
Retry sector count : 0
Damaged sector count : 0
Track 04
Filename : /Users/anch/Music/Grabbed/Daniel Levin, Mat Maneri/F 2015 - The Transcendent Function/04 - Coelacanth.flac
Track gain : 0.73 dB
Peak : 0.977753
CRC32 hash (test run) : 099F7D62
CRC32 hash : 099F7D62
CRC32 hash (skip zero) : D4F77917
AccurateRip v1 signature : 334A2928
AccurateRip v2 signature : C449D45F
->Track not present in AccurateRip database.
Statistics
Read error : 0
Jitter error (maybe fixed) : 0
Retry sector count : 0
Damaged sector count : 0
Track 05
Filename : /Users/anch/Music/Grabbed/Daniel Levin, Mat Maneri/F 2015 - The Transcendent Function/05 - Rhizome.flac
Track gain : -0.97 dB
Peak : 0.977539
CRC32 hash (test run) : C97AD1FC
CRC32 hash : C97AD1FC
CRC32 hash (skip zero) : 87B4345B
AccurateRip v1 signature : E9742324
AccurateRip v2 signature : 53A67854
->Track not present in AccurateRip database.
Statistics
Read error : 0
Jitter error (maybe fixed) : 0
Retry sector count : 0
Damaged sector count : 0
Track 06
Filename : /Users/anch/Music/Grabbed/Daniel Levin, Mat Maneri/F 2015 - The Transcendent Function/06 - Sad Song.flac
Track gain : 1.71 dB
Peak : 0.906372
CRC32 hash (test run) : 7FC30355
CRC32 hash : 7FC30355
CRC32 hash (skip zero) : A6306EF9
AccurateRip v1 signature : 41A403AB
AccurateRip v2 signature : D2D19233
->Track not present in AccurateRip database.
Statistics
Read error : 0
Jitter error (maybe fixed) : 0
Retry sector count : 0
Damaged sector count : 0
No errors occurred
End of status report
-----BEGIN XLD SIGNATURE-----
M3IOAUHoDd6w1SHcM18hxN9UC1QK2oLkVsZ37T.9AZBDZUrFifOVwYM9OjYJ4zEutIPnMWACj0rPzFXOvhJORHNMJWM_SsHB6_YQdQS
-----END XLD SIGNATURE-----
 
Содержание индексной карты (.CUE)
TITLE "The Transcendent Function"
PERFORMER "Daniel Levin, Mat Maneri"
CATALOG 5609063003512
REM GENRE "Free Jazz"
REM DATE "2015"
REM DISCNUMBER 1
REM TOTALDISCS 1
REM DISCID 4C0B4E06
REM REPLAYGAIN_ALBUM_GAIN -1.15 dB
REM REPLAYGAIN_ALBUM_PEAK 0.980865
FILE "01 - Contemporary Improvisation.flac" WAVE
TRACK 01 AUDIO
TITLE "Contemporary Improvisation"
PERFORMER "Daniel Levin, Mat Maneri"
ISRC PTNF11509348
REM COMMENT "Recorded on February 21, 2015 at The Village, Copenhagen, Denmark Mixed and mastered at Firehouse 12, New Haven, Connecticut, USA."
REM REPLAYGAIN_TRACK_GAIN -2.62 dB
REM REPLAYGAIN_TRACK_PEAK 0.980865
INDEX 01 00:00:00
FILE "02 - Soul.flac" WAVE
TRACK 02 AUDIO
TITLE "Soul"
PERFORMER "Daniel Levin, Mat Maneri"
ISRC PTNF11509349
REM COMMENT "Recorded on February 21, 2015 at The Village, Copenhagen, Denmark Mixed and mastered at Firehouse 12, New Haven, Connecticut, USA."
REM REPLAYGAIN_TRACK_GAIN 1.92 dB
REM REPLAYGAIN_TRACK_PEAK 0.850983
INDEX 01 00:00:00
FILE "03 - Flight.flac" WAVE
TRACK 03 AUDIO
TITLE "Flight"
PERFORMER "Daniel Levin, Mat Maneri"
ISRC PTNF11509350
REM COMMENT "Recorded on February 21, 2015 at The Village, Copenhagen, Denmark Mixed and mastered at Firehouse 12, New Haven, Connecticut, USA."
REM REPLAYGAIN_TRACK_GAIN -3.57 dB
REM REPLAYGAIN_TRACK_PEAK 0.980408
INDEX 01 00:00:00
FILE "04 - Coelacanth.flac" WAVE
TRACK 04 AUDIO
TITLE "Coelacanth"
PERFORMER "Daniel Levin, Mat Maneri"
ISRC PTNF11509351
REM COMMENT "Recorded on February 21, 2015 at The Village, Copenhagen, Denmark Mixed and mastered at Firehouse 12, New Haven, Connecticut, USA."
REM REPLAYGAIN_TRACK_GAIN 0.73 dB
REM REPLAYGAIN_TRACK_PEAK 0.977753
INDEX 01 00:00:00
FILE "05 - Rhizome.flac" WAVE
TRACK 05 AUDIO
TITLE "Rhizome"
PERFORMER "Daniel Levin, Mat Maneri"
ISRC PTNF11509352
REM COMMENT "Recorded on February 21, 2015 at The Village, Copenhagen, Denmark Mixed and mastered at Firehouse 12, New Haven, Connecticut, USA."
REM REPLAYGAIN_TRACK_GAIN -0.97 dB
REM REPLAYGAIN_TRACK_PEAK 0.977539
INDEX 01 00:00:00
FILE "06 - Sad Song.flac" WAVE
TRACK 06 AUDIO
TITLE "Sad Song"
PERFORMER "Daniel Levin, Mat Maneri"
ISRC PTNF11509353
REM COMMENT "Recorded on February 21, 2015 at The Village, Copenhagen, Denmark Mixed and mastered at Firehouse 12, New Haven, Connecticut, USA."
REM REPLAYGAIN_TRACK_GAIN 1.71 dB
REM REPLAYGAIN_TRACK_PEAK 0.906372
INDEX 01 00:00:00
 
Об альбоме
By adopting psychologist and philosopher Carl Jung’s phrase for the title of their first duo recording, Daniel Levin and Mat Maneri have acknowledged the necessity of a balance between intuitive spontaneity (the unconscious) and pre-established conditions (the conscious) in their improvisatory format. Both of them have proven to be probing, provocative improvisers in a wide range of settings in the past, but this collaboration offers special qualities unique to the circumstances at hand.
The exposed nature of the strings colors the music – congested notes bristle or blur, bow pressure growls or sighs, and microtones add bittersweet tonalities. Often their improvisations expand and contract; interwoven melodic contours blend together until one disentangles from the other with small explosions of pizzicato or aggressive double-stops. Episodes of close-knit counterpoint allow the viola and cello to bounce off one another, jostle, and re-align contrasting details with lightning-quick responses. Two explicit points of view become a third, creative, entity.
 
Состав

Mat Maneri - viola ' ' ' ' ' Daniel Levin - cello
По всем вопросам пишите личное сообщение пользователю M0p94ok.
19:09
209
Нет комментариев. Ваш будет первым!