Вы используете незарегистрированную версию компонента "Вкладки"!

Поиск

(Free Jazz) Dyani, Temiz, Feza - Music For Xaba - 1999, FLAC (tracks+.cue), lossless

Треклист:
Dyani, Temiz, Feza - Music For Xaba
Жанр: Free Jazz
Страна-производитель диска: Great Britain
Год издания: 1999
Издатель (лейбл): Sonet
Номер по каталогу: SNTF 642
Аудиокодек: FLAC (*.flac)
Тип рипа: tracks+.cue
Битрейт аудио: lossless
Продолжительность: 43 min
Источник (релизер): собственный рип с оригинального диска.
Наличие сканов в содержимом раздачи: да
Треклист:
01. Idyongwana 9:30
02. Feelings 12:45
03. Traditional South African Songs 9:10
04. Görans Söder 11:30
 
Лог создания рипа
Exact Audio Copy V1.0 beta 2 from 29. April 2011
EAC extraction logfile from 12. May 2012, 8:50
Dyani, Temiz, Feza / Music for Xaba
Used drive : TSSTcorpCDDVDW SH-S222A Adapter: 1 ID: 0
Read mode : Secure
Utilize accurate stream : Yes
Defeat audio cache : Yes
Make use of C2 pointers : No
Read offset correction : 6
Overread into Lead-In and Lead-Out : No
Fill up missing offset samples with silence : Yes
Delete leading and trailing silent blocks : No
Null samples used in CRC calculations : Yes
Used interface : Native Win32 interface for Win NT & 2000
Gap handling : Appended to previous track
Used output format : User Defined Encoder
Selected bitrate : 896 kBit/s
Quality : High
Add ID3 tag : No
Command line compressor : C:\Tool\CD\EAC10\FLAC\FLAC.EXE
Additional command line options : -6 -V -T "ARTIST=%artist%" -T "TITLE=%title%" -T "ALBUM=%albumtitle%" -T "DATE=%year%" -T "TRACKNUMBER=%tracknr%" -T "GENRE=%genre%" -T "COMMENT=%comment%" -T "BAND=%albuminterpret%" -T "COMPOSER=%composer%" %haslyrics%--ta
TOC of the extracted CD
Track | Start | Length | Start sector | End sector
---------------------------------------------------------
1 | 0:00.00 | 8:39.19 | 0 | 38943
2 | 8:39.19 | 13:00.14 | 38944 | 97457
3 | 21:39.33 | 9:40.49 | 97458 | 141006
4 | 31:20.07 | 12:00.00 | 141007 | 195006
Track 1
Filename C:\! UPLOAD\Dyani, Temiz, Feza - Music for Xaba (1973) [FLAC] {Sonet}\01 - Idyongwana.wav
Pre-gap length 0:00:02.00
Peak level 97.7 %
Extraction speed 3.4 X
Track quality 99.9 %
Test CRC 5A119008
Copy CRC 5A119008
Track not present in AccurateRip database
Copy OK
Track 2
Filename C:\! UPLOAD\Dyani, Temiz, Feza - Music for Xaba (1973) [FLAC] {Sonet}\02 - Feelings.wav
Peak level 97.7 %
Extraction speed 3.6 X
Track quality 99.9 %
Test CRC A6B462FA
Copy CRC A6B462FA
Track not present in AccurateRip database
Copy OK
Track 3
Filename C:\! UPLOAD\Dyani, Temiz, Feza - Music for Xaba (1973) [FLAC] {Sonet}\03 - Traditional South African Songs.wav
Peak level 97.7 %
Extraction speed 3.4 X
Track quality 99.9 %
Test CRC 0D799FBE
Copy CRC 0D799FBE
Track not present in AccurateRip database
Copy OK
Track 4
Filename C:\! UPLOAD\Dyani, Temiz, Feza - Music for Xaba (1973) [FLAC] {Sonet}\04 - Gorans Soder.wav
Peak level 97.7 %
Extraction speed 3.7 X
Track quality 100.0 %
Test CRC 240D2351
Copy CRC 240D2351
Track not present in AccurateRip database
Copy OK
None of the tracks are present in the AccurateRip database
No errors occurred
End of status report
---- CUETools DB Plugin V2.1.2
[CTDB TOCID: Xr0hhEW4PU8SKhNLmRcyFAJF6OY-] found, Submit result: already submitted
[b868b792] (1/1) Accurately ripped
==== Log checksum 54D08A08184B71B36442D50AE2EF51D94392DD6AA2D5DEB6160B3D451E60799F ====
 
Содержание индексной карты (.CUE)
REM GENRE Jazz
REM DATE 1973
REM DISCID 220A2804
REM COMMENT "ExactAudioCopy v1.0b2"
PERFORMER "Dyani, Temiz, Feza"
TITLE "Music for Xaba"
FILE "01 - Idyongwana.wav" WAVE
TRACK 01 AUDIO
TITLE "Idyongwana"
PERFORMER "Dyani, Temiz, Feza"
FLAGS DCP
INDEX 01 00:00:00
FILE "02 - Feelings.wav" WAVE
TRACK 02 AUDIO
TITLE "Feelings"
PERFORMER "Dyani, Temiz, Feza"
FLAGS DCP
INDEX 01 00:00:00
FILE "03 - Traditional South African Songs.wav" WAVE
TRACK 03 AUDIO
TITLE "Traditional South African Songs"
PERFORMER "Dyani, Temiz, Feza"
FLAGS DCP
INDEX 01 00:00:00
FILE "04 - Gorans Soder.wav" WAVE
TRACK 04 AUDIO
TITLE "Gorans Soder"
PERFORMER "Dyani, Temiz, Feza"
FLAGS DCP
INDEX 01 00:00:00
Доп. информация:
Recorded at Theatre Nine, Stockholm, Sweden, November 2nd, 1972.
Universal Folk Sounds Volume One.
 
Об альбоме (сборнике)
“As one might expect from a group incorporating Dyani, this is not a conventional Jazz piece.”
“The man of star-cut and long thoughtful solos.”
“Traditional South African songs being ostensibly, reflects on the Khosa tribal heritage of Dyani.” Steve Lake (Melody Maker – 1972)
 
Состав
Johnny Dyani - bass, piano, vocals
Okay Temiz - drums, percussion
Mongezi Feza - trumpet, percussion
Any questions -> support@pro-jazz.com. По всем вопросам пишите -> support@pro-jazz.com
01:02
152
Нет комментариев. Ваш будет первым!