Вы используете незарегистрированную версию компонента "Вкладки"!

Поиск

(Free Improvisation, Free Jazz) Collective 4tet (Arthur Brooks, Heinz Geisser, Mark Hennen, William Parker) - In Transition - 2009, FLAC (image+.cue), lossless

Треклист:
Collective 4tet / In Transition
Жанр: Free Improvisation, Free Jazz
Страна-производитель диска: UK
Год издания: 2009
Издатель (лейбл): Leo Records
Номер по каталогу: CD LR 529
Аудиокодек: FLAC (*.flac)
Тип рипа: image+.cue
Битрейт аудио: lossless
Продолжительность: 66:06
Источник (релизер): cd
Наличие сканов в содержимом раздачи: нет
Треклист:
1 In Transition 22:40
2 Clear Skies 22:00
3 For a Change 21:25
 
Лог создания рипа
Exact Audio Copy V1.0 beta 2 from 29. April 2011
EAC extraction logfile from 25. May 2012, 11:03
Collective 4tet / In Transition
Used drive : Optiarc DVD RW AD-7170A Adapter: 0 ID: 0
Read mode : Secure
Utilize accurate stream : Yes
Defeat audio cache : Yes
Make use of C2 pointers : No
Read offset correction : 48
Overread into Lead-In and Lead-Out : No
Fill up missing offset samples with silence : Yes
Delete leading and trailing silent blocks : No
Null samples used in CRC calculations : Yes
Used interface : Native Win32 interface for Win NT & 2000
Used output format : User Defined Encoder
Selected bitrate : 320 kBit/s
Quality : High
Add ID3 tag : No
Command line compressor : C:\Program Files\Exact Audio Copy\Flac\flac.exe
Additional command line options : -V -8 -T "Date=%year%" -T "Genre=%genre%" %source%
TOC of the extracted CD
Track | Start | Length | Start sector | End sector
---------------------------------------------------------
1 | 0:00.00 | 22:40.59 | 0 | 102058
2 | 22:40.59 | 22:00.16 | 102059 | 201074
3 | 44:41.00 | 21:25.14 | 201075 | 297463
Range status and errors
Selected range
Filename K:\ЕАС\Collective 4tet - In Transition.wav
Peak level 98.8 %
Extraction speed 1.9 X
Range quality 99.9 %
Test CRC 9FE1B8A7
Copy CRC 9FE1B8A7
Copy OK
No errors occurred
AccurateRip summary
Track 1 accurately ripped (confidence 1) [34A84754] (AR v1)
Track 2 accurately ripped (confidence 1) [7E2B819B] (AR v1)
Track 3 cannot be verified as accurate (confidence 1) [32CD3A2C], AccurateRip returned [626512E4] (AR v2)
2 трек(и) скопированы точно
1 трек(и) не удалось проверить на точность
Some tracks could not be verified as accurate
End of status report
==== Log checksum 035986D321F217F32C69F38F71B663B5DF4BE25641673E390B2C916EDA3F5D66 ====
 
Содержание индексной карты (.CUE)
REM GENRE Jazz
REM DATE 2009
REM DISCID 210F7E03
REM COMMENT "ExactAudioCopy v1.0b2"
PERFORMER "Collective 4tet"
TITLE "In Transition"
FILE "Collective 4tet - In Transition.flac" WAVE
TRACK 01 AUDIO
TITLE "In Transition"
PERFORMER "Collective 4tet"
ISRC 000000000000
FLAGS DCP
INDEX 01 00:00:00
TRACK 02 AUDIO
TITLE "Clear Skies"
PERFORMER "Collective 4tet"
ISRC 000000000000
FLAGS DCP
INDEX 01 22:40:59
TRACK 03 AUDIO
TITLE "For a Change"
PERFORMER "Collective 4tet"
ISRC 000000000000
FLAGS DCP
INDEX 01 44:41:00
 
Состав
Arthur Brooks Flugelhorn,Trumpet
Heinz Geisser Percussion
Mark Hennen Piano
William Parker Violin (Bass)
Any questions -> support@pro-jazz.com. По всем вопросам пишите -> support@pro-jazz.com
01:02
158
Нет комментариев. Ваш будет первым!