Вы используете незарегистрированную версию компонента "Вкладки"!

Поиск

(Free-Jazz) David S. Ware - Live In The Netherlands - 2001, FLAC (tracks+.cue), lossless

Треклист:
David S. Ware - Live In The Netherlands
Жанр: Free-Jazz
Год выпуска диска: 2001
Производитель диска: Italy
Label: Splasc(H) Records CDH 825.2
Аудио кодек: FLAC
Тип рипа: tracks+.cue + Artwork
Битрейт аудио: lossless
Продолжительность: 39:07
Происхождение рипа: собственный рип с оригинального диска.
Треклист:
01. 4th dimensional
02. 5th dimensional
03. 6th dimensional
04. 7th dimensional
Доп. информация:
David S. Ware - tenor saxophone
Recorded live on October 26, 1997 by de ConcertZender at Zuid-Netherlands Jazz Festival.
Recording engineer Mark van Kempen and Hans Straman.
Final mastering by Chris Flam at Mindswerve Studios, NYC on 1 February, 2001.
 
EAC log
Exact Audio Copy V0.99 prebeta 5 from 4. May 2009
EAC extraction logfile from 25. August 2010, 23:47
David S Ware / Live in the Netherlands
Used drive : HL-DT-STDVD-ROM GDR8162B Adapter: 1 ID: 1
Read mode : Secure
Utilize accurate stream : Yes
Defeat audio cache : Yes
Make use of C2 pointers : No
Read offset correction : 102
Overread into Lead-In and Lead-Out : Yes
Fill up missing offset samples with silence : Yes
Delete leading and trailing silent blocks : No
Null samples used in CRC calculations : Yes
Used interface : Installed external ASPI interface
Gap handling : Appended to previous track
Used output format : User Defined Encoder
Selected bitrate : 768 kBit/s
Quality : High
Add ID3 tag : No
Command line compressor : C:\Program Files\FLAC\flac.exe
Additional command line options : -V -8 -T "ARTIST=%a" -T "TITLE=%t" -T "ALBUM=%g" -T "TRACKNUMBER=%n" -T "GENRE=%m" %s
TOC of the extracted CD
Track | Start | Length | Start sector | End sector
---------------------------------------------------------
1 | 0:00.00 | 9:24.41 | 0 | 42340
2 | 9:24.41 | 4:33.66 | 42341 | 62881
3 | 13:58.32 | 10:11.27 | 62882 | 108733
4 | 24:09.59 | 14:59.55 | 108734 | 176213
Track 1
Filename C:\ru up\David S. Ware - Live In The Netherlands\01 - 4th Dimensional.wav
Pre-gap length 0:00:02.00
Peak level 98.8 %
Track quality 100.0 %
Test CRC 7D70BDC8
Copy CRC 7D70BDC8
Accurately ripped (confidence 1) [9A9B7188]
Copy OK
Track 2
Filename C:\ru up\David S. Ware - Live In The Netherlands\02 - 5th Dimensional.wav
Peak level 98.8 %
Track quality 100.0 %
Test CRC 425F02BF
Copy CRC 425F02BF
Accurately ripped (confidence 1) [447EA546]
Copy OK
Track 3
Filename C:\ru up\David S. Ware - Live In The Netherlands\03 - 6th Dimensional.wav
Peak level 98.8 %
Track quality 100.0 %
Test CRC 213505A0
Copy CRC 213505A0
Accurately ripped (confidence 1) [61612E83]
Copy OK
Track 4
Filename C:\ru up\David S. Ware - Live In The Netherlands\04 - 7th Dimensional.wav
Peak level 92.9 %
Track quality 100.0 %
Test CRC 30ED594B
Copy CRC 30ED594B
Accurately ripped (confidence 1) [E36913AB]
Copy OK
All tracks accurately ripped
No errors occurred
End of status report
 
cue
REM GENRE "Free Jazz"
REM DATE 1997
REM DISCID 2A092D04
REM COMMENT "ExactAudioCopy v0.99pb5"
CATALOG 0000000000000
PERFORMER "David S Ware"
TITLE "Live in the Netherlands"
FILE "01 - 4th Dimensional.wav" WAVE
TRACK 01 AUDIO
TITLE "4th Dimensional"
PERFORMER "David S Ware"
FLAGS DCP
INDEX 01 00:00:00
FILE "02 - 5th Dimensional.wav" WAVE
TRACK 02 AUDIO
TITLE "5th Dimensional"
PERFORMER "David S Ware"
FLAGS DCP
INDEX 01 00:00:00
FILE "03 - 6th Dimensional.wav" WAVE
TRACK 03 AUDIO
TITLE "6th Dimensional"
PERFORMER "David S Ware"
FLAGS DCP
INDEX 01 00:00:00
FILE "04 - 7th Dimensional.wav" WAVE
TRACK 04 AUDIO
TITLE "7th Dimensional"
PERFORMER "David S Ware"
FLAGS DCP
INDEX 01 00:00:00
Any questions -> support@pro-jazz.com. По всем вопросам пишите -> support@pro-jazz.com
02:46
141
Нет комментариев. Ваш будет первым!