Вы используете незарегистрированную версию компонента "Вкладки"!

Поиск

(Avant-Garde / Modern Creative) Dennis Gonzalez / Joao Paulo - Scapegrace - 2009, FLAC (image+.cue), lossless

Треклист:
Dennis Gonzalez / Joao Paulo - Scapegrace

Жанр: Avant-Garde / Modern Creative
Год выпуска диска: 2009
Производитель диска: Clean Feed CF144; Portugal
Аудио кодек: FLAC
Тип рипа: image+.cue
Битрейт аудио: lossless
Продолжительность: 1:12:23
João Paulo: piano
Dennis González: Bb cornet, C trumpet
1. First Song
2. Anthem for the Moment
3. Tolleymore
4. Spacegrace
5. Duas Danças Arcaicas
6. Hymn for Later
7. Seixal Township
8. Broken Bop
9. Última Canção
Recorded June 12, 2007 in Forum Cultural do Seixal, Portugal
 
Clean Feed
This music is the result of an encounter between two great musicians living in two very distant parts of the world: Texan trumpeter/cornetist Dennis Gonzalez and Portuguese pianist Joao Paulo Esteves da Silva had never met before this recording session (and then just a couple of concerts in Portugal to prepare for it). They weren't even much aware of each others' musical projects - only the jazz format and the practice of improvisation could enable such a meeting to take place, and the resulting CD is a wonder of musicality, togetherness and joy.
The fact that their respective activities developed away from the principal centers where the music "happens" is sufficient explanation for the reasons that they're not widely recognized as the masters they really are, but that circumstance also explains the individualistic voices they present to us. Gonzalez has played with legends such as Famoudou Don Moye, Charles Brackeen, Reggie Workman, John Purcell, Oliver Lake, and Malachi Favors, and that says much about his profile. A virtuoso on the piano, Esteves da Silva is an undeniable figure in his country, with standing requests coming from artists from genres other than jazz. In duo, Gonzalez and Joao Paulo play a delicate, beautiful music full of spirituality, nuance and drive, with roots in the post-bop tradition but free flowing and universal in dimension. Something very, very special... ~ Clean Feed
 
EAC Report
Exact Audio Copy V0.99 prebeta 4 from 23. January 2008
EAC extraction logfile from 3. July 2010, 0:08
Dennis González / João Paulo / Scapegrace
Used drive : TSSTcorpCD/DVDW SH-S182M Adapter: 2 ID: 1
Read mode : Secure
Utilize accurate stream : Yes
Defeat audio cache : Yes
Make use of C2 pointers : No
Read offset correction : 6
Overread into Lead-In and Lead-Out : No
Fill up missing offset samples with silence : Yes
Delete leading and trailing silent blocks : No
Null samples used in CRC calculations : Yes
Used interface : Installed external ASPI interface
Used output format : User Defined Encoder
Selected bitrate : 1024 kBit/s
Quality : High
Add ID3 tag : No
Command line compressor : C:\Program Files\Exact Audio Copy\Flac\flac.exe
Additional command line options : -6 -V -T "ARTIST=%a" -T "TITLE=%t" -T "ALBUM=%g" -T "DATE=%y" -T "TRACKNUMBER=%n" -T "GENRE=%m" -T "COMMENT=EAC FLAC -6" %s
TOC of the extracted CD
Track | Start | Length | Start sector | End sector
---------------------------------------------------------
1 | 0:00.00 | 6:49.21 | 0 | 30695
2 | 6:49.21 | 7:29.29 | 30696 | 64399
3 | 14:18.50 | 5:32.17 | 64400 | 89316
4 | 19:50.67 | 9:46.69 | 89317 | 133335
5 | 29:37.61 | 10:00.53 | 133336 | 178388
6 | 39:38.39 | 11:21.74 | 178389 | 229537
7 | 51:00.38 | 6:40.60 | 229538 | 259597
8 | 57:41.23 | 7:32.62 | 259598 | 293559
9 | 65:14.10 | 7:08.29 | 293560 | 325688
Range status and errors
Selected range
Filename C:\Users\Igor\Music\eac\Dennis Gonzalez & Joao Paulo - Scapegrace.wav
Peak level 99.9 %
Range quality 100.0 %
Test CRC 64FCBFDE
Copy CRC 64FCBFDE
Copy OK
No errors occurred
AccurateRip summary
Track 1 accurately ripped (confidence 1) [882087AD]
Track 2 accurately ripped (confidence 1) [13F6CF72]
Track 3 accurately ripped (confidence 1) [6513D9DE]
Track 4 accurately ripped (confidence 1) [68D01ADE]
Track 5 accurately ripped (confidence 1) [358EF6FE]
Track 6 accurately ripped (confidence 1) [13A63249]
Track 7 accurately ripped (confidence 1) [8CEAB220]
Track 8 accurately ripped (confidence 1) [C400E3F6]
Track 9 accurately ripped (confidence 1) [116C65EB]
All tracks accurately ripped
End of status report

рип собственный
Any questions -> support@pro-jazz.com. По всем вопросам пишите -> support@pro-jazz.com
02:47
157
Нет комментариев. Ваш будет первым!