Вы используете незарегистрированную версию компонента "Вкладки"!

Поиск

(Free Jazz) Darius Jones Trio - Man'ish Boy (A Raw & Beautiful Thing) - 2009, FLAC (tracks+.cue), lossless

(Free Jazz) Darius Jones Trio - Man'ish Boy (A Raw & Beautiful Thing) - 2009, FLAC (tracks+.cue), lossless
Треклист:
Darius Jones Trio / Man'ish Boy (A Raw & Beautiful Thing)
Жанр: Free Jazz
Страна-производитель диска: US
Год издания: 2009
Издатель (лейбл): AUM Fidelity
Номер по каталогу: AUM057
Аудиокодек: FLAC (*.flac)
Тип рипа: tracks+.cue
Битрейт аудио: lossless
Продолжительность: 52:47
Источник (релизер): whatcd
Наличие сканов в содержимом раздачи: нет
Треклист:
1 Roosevelt 1:16
2 Cry Out 7:03
3 We Are Unicorns (Composed By – Cooper-Moore) 4:04
4 Meekness 5:32
5 Salty (Composed By – Rakalam, Cooper-Moore) 2:51
6 Chasing The Ghost 9:44
7 Big Train Rollin' (Composed By – Rakalam) 5:28
8 Forgive Me
8b Chaych (Bass – Adam Lane, Drums – Jason Nazary, Recorded By – Jim Staley) 16:23
 
Лог создания рипа
Exact Audio Copy V0.99 prebeta 4 from 23. January 2008
EAC extraction logfile from 5. November 2010, 1:10
Darius Jones / Man'ish Boy
Used drive : TSSTcorpCDDVDW SH-S223B Adapter: 3 ID: 0
Read mode : Secure
Utilize accurate stream : Yes
Defeat audio cache : Yes
Make use of C2 pointers : No
Read offset correction : 6
Overread into Lead-In and Lead-Out : No
Fill up missing offset samples with silence : Yes
Delete leading and trailing silent blocks : No
Null samples used in CRC calculations : Yes
Used interface : Native Win32 interface for Win NT & 2000
Gap handling : Appended to previous track
Used output format : User Defined Encoder
Selected bitrate : 768 kBit/s
Quality : High
Add ID3 tag : No
Command line compressor : C:\Program Files\Exact Audio Copy\FLAC\FLAC.EXE
Additional command line options : -8 -V -T "ARTIST=%a" -T "TITLE=%t" -T "ALBUM=%g" -T "DATE=%y" -T "TRACKNUMBER=%n" -T "GENRE=%m" -T "COMMENT=%e" %s -o %d
TOC of the extracted CD
Track | Start | Length | Start sector | End sector
---------------------------------------------------------
1 | 0:00.00 | 1:16.40 | 0 | 5739
2 | 1:16.40 | 7:08.61 | 5740 | 37900
3 | 8:25.26 | 4:08.66 | 37901 | 56566
4 | 12:34.17 | 5:35.47 | 56567 | 81738
5 | 18:09.64 | 2:53.55 | 81739 | 94768
6 | 21:03.44 | 9:47.50 | 94769 | 138843
7 | 30:51.19 | 5:32.45 | 138844 | 163788
8 | 36:23.64 | 16:23.54 | 163789 | 237567
Track 1
Filename D:\eac\Darius Jones - Man'ish Boy (2009)\01 - Roosevelt.wav
Pre-gap length 0:00:02.00
Peak level 97.6 %
Track quality 100.0 %
Test CRC A5DD053C
Copy CRC A5DD053C
Accurately ripped (confidence 4) [A2BADFA3]
Copy OK
Track 2
Filename D:\eac\Darius Jones - Man'ish Boy (2009)\02 - Cry Out.wav
Pre-gap length 0:00:02.00
Peak level 97.7 %
Track quality 100.0 %
Test CRC FCC98901
Copy CRC FCC98901
Accurately ripped (confidence 4) [77CAF080]
Copy OK
Track 3
Filename D:\eac\Darius Jones - Man'ish Boy (2009)\03 - We Are Unicorns.wav
Pre-gap length 0:00:02.00
Peak level 97.5 %
Track quality 100.0 %
Test CRC 791659E4
Copy CRC 791659E4
Accurately ripped (confidence 4) [7D3AB17F]
Copy OK
Track 4
Filename D:\eac\Darius Jones - Man'ish Boy (2009)\04 - Meekness.wav
Pre-gap length 0:00:02.00
Peak level 97.7 %
Track quality 100.0 %
Test CRC BB0C3D78
Copy CRC BB0C3D78
Accurately ripped (confidence 4) [19830379]
Copy OK
Track 5
Filename D:\eac\Darius Jones - Man'ish Boy (2009)\05 - Salty.wav
Pre-gap length 0:00:02.00
Peak level 96.7 %
Track quality 100.0 %
Test CRC 76CF826A
Copy CRC 76CF826A
Accurately ripped (confidence 4) [BC77157E]
Copy OK
Track 6
Filename D:\eac\Darius Jones - Man'ish Boy (2009)\06 - Chasing The Ghost.wav
Pre-gap length 0:00:02.00
Peak level 97.7 %
Track quality 100.0 %
Test CRC 03589FAA
Copy CRC 03589FAA
Accurately ripped (confidence 4) [78B1CDCF]
Copy OK
Track 7
Filename D:\eac\Darius Jones - Man'ish Boy (2009)\07 - Big Train Rollin'.wav
Pre-gap length 0:00:02.00
Peak level 97.7 %
Track quality 100.0 %
Test CRC 53931EF4
Copy CRC 53931EF4
Accurately ripped (confidence 4) [21E51A1D]
Copy OK
Track 8
Filename D:\eac\Darius Jones - Man'ish Boy (2009)\08 - Forgive Me.wav
Pre-gap length 0:00:02.00
Peak level 77.8 %
Track quality 100.0 %
Test CRC F4A7BF13
Copy CRC F4A7BF13
Accurately ripped (confidence 4) [096D9513]
Copy OK
All tracks accurately ripped
No errors occurred
End of status report
 
Содержание индексной карты (.CUE)
REM GENRE Jazz
REM DATE 2009
REM DISCID 690C5F08
REM COMMENT "ExactAudioCopy v0.99pb4"
PERFORMER "Darius Jones"
TITLE "Man'ish Boy"
FILE "01 - Roosevelt.wav" WAVE
TRACK 01 AUDIO
TITLE "Roosevelt"
PERFORMER "Darius Jones"
INDEX 01 00:00:00
TRACK 02 AUDIO
TITLE "Cry Out"
PERFORMER "Darius Jones"
INDEX 00 01:14:40
FILE "02 - Cry Out.wav" WAVE
INDEX 01 00:00:00
TRACK 03 AUDIO
TITLE "We Are Unicorns"
PERFORMER "Darius Jones"
INDEX 00 07:06:61
FILE "03 - We Are Unicorns.wav" WAVE
INDEX 01 00:00:00
TRACK 04 AUDIO
TITLE "Meekness"
PERFORMER "Darius Jones"
INDEX 00 04:06:66
FILE "04 - Meekness.wav" WAVE
INDEX 01 00:00:00
TRACK 05 AUDIO
TITLE "Salty"
PERFORMER "Darius Jones"
INDEX 00 05:33:47
FILE "05 - Salty.wav" WAVE
INDEX 01 00:00:00
TRACK 06 AUDIO
TITLE "Chasing The Ghost"
PERFORMER "Darius Jones"
INDEX 00 02:51:55
FILE "06 - Chasing The Ghost.wav" WAVE
INDEX 01 00:00:00
TRACK 07 AUDIO
TITLE "Big Train Rollin'"
PERFORMER "Darius Jones"
INDEX 00 09:45:50
FILE "07 - Big Train Rollin'.wav" WAVE
INDEX 01 00:00:00
TRACK 08 AUDIO
TITLE "Forgive Me"
PERFORMER "Darius Jones"
INDEX 00 05:30:45
FILE "08 - Forgive Me.wav" WAVE
INDEX 01 00:00:00
Доп. информация: Recorded at Systems Two Studio, Brooklyn on April 27, 2009
Bonus Track 8b recorded live at Roulette, NYC on August 6, 2008
 
Состав
Drums – Rakalam Bob Moses (tracks: 1 to 8)
Piano, Performer [Diddley-bo] – Cooper-Moore (tracks: 1 to 8)
Saxophone [Alto], Producer, Composed By – Darius Jones
Any questions -> support@pro-jazz.com. По всем вопросам пишите -> support@pro-jazz.com
02:16
163
Нет комментариев. Ваш будет первым!