Вы используете незарегистрированную версию компонента "Вкладки"!

Поиск

(Free Jazz) Darius Jones Trio - Big Gurl (Smell My Dream) - 2011, FLAC (tracks+.cue), lossless

(Free Jazz) Darius Jones Trio - Big Gurl (Smell My Dream) - 2011, FLAC (tracks+.cue), lossless
Треклист:
Darius Jones Trio / Big Gurl (Smell My Dream)
Жанр: Free Jazz
Год издания: 2011
Издатель (лейбл): AUM Fidelity
Номер по каталогу: AUM069
Аудиокодек: FLAC (*.flac)
Тип рипа: tracks+.cue
Битрейт аудио: lossless
Продолжительность: 46:56
Источник (релизер): whatcd
Наличие сканов в содержимом раздачи: нет
Треклист:
1 E-Gaz 4:23
2 Michele ? Willie 6:58
3 A Train 6:05
4 I Wish I Had A Choice 7:17
5 My Special "D" 7:37
6 Chasing The Ghost 6:35
7 Ol' Metal-Faced Bastard 7:58
 
Лог создания рипа
Exact Audio Copy V1.0 beta 2 from 29. April 2011
EAC extraction logfile from 1. December 2011, 23:50
Darius Jones Trio / Big Gurl (Smell My Dream)
Used drive : HL-DT-STDVDRAM GH22NS50 Adapter: 3 ID: 0
Read mode : Secure
Utilize accurate stream : Yes
Defeat audio cache : Yes
Make use of C2 pointers : No
Read offset correction : 667
Overread into Lead-In and Lead-Out : No
Fill up missing offset samples with silence : Yes
Delete leading and trailing silent blocks : No
Null samples used in CRC calculations : Yes
Used interface : Native Win32 interface for Win NT & 2000
Gap handling : Appended to previous track
Used output format : User Defined Encoder
Selected bitrate : 768 kBit/s
Quality : High
Add ID3 tag : No
Command line compressor : C:\Program Files\Exact Audio Copy\FLAC\FLAC.EXE
Additional command line options : -8 -V -T "ARTIST=%artist%" -T "TITLE=%title%" -T "ALBUM=%albumtitle%" -T "DATE=%year%" -T "TRACKNUMBER=%tracknr%" -T "GENRE=%genre%" -T "PERFORMER=%albuminterpret%" -T "COMPOSER=%composer%" %haslyrics%--tag-from-file=LYRICS
TOC of the extracted CD
Track | Start | Length | Start sector | End sector
---------------------------------------------------------
1 | 0:00.00 | 4:23.04 | 0 | 19728
2 | 4:23.04 | 6:58.39 | 19729 | 51117
3 | 11:21.43 | 6:05.54 | 51118 | 78546
4 | 17:27.22 | 7:17.30 | 78547 | 111351
5 | 24:44.52 | 7:37.72 | 111352 | 145698
6 | 32:22.49 | 6:35.55 | 145699 | 175378
7 | 38:58.29 | 7:58.16 | 175379 | 211244
Track 1
Filename D:\Musica\Darius Jones Trio - Big Gurl (Smell My Dream) (2011) FLAC\01 - E-Gaze.wav
Pre-gap length 0:00:02.00
Peak level 100.0 %
Extraction speed 1.0 X
Track quality 100.0 %
Test CRC 4F90148F
Copy CRC 4F90148F
Track not present in AccurateRip database
Copy OK
Track 2
Filename D:\Musica\Darius Jones Trio - Big Gurl (Smell My Dream) (2011) FLAC\02 - Michele Willie.wav
Peak level 97.7 %
Extraction speed 1.2 X
Track quality 100.0 %
Test CRC DAB6F765
Copy CRC DAB6F765
Track not present in AccurateRip database
Copy OK
Track 3
Filename D:\Musica\Darius Jones Trio - Big Gurl (Smell My Dream) (2011) FLAC\03 - A Train.wav
Peak level 97.7 %
Extraction speed 1.4 X
Track quality 100.0 %
Test CRC 76ADE119
Copy CRC 76ADE119
Track not present in AccurateRip database
Copy OK
Track 4
Filename D:\Musica\Darius Jones Trio - Big Gurl (Smell My Dream) (2011) FLAC\04 - I Wish I Had a Choice.wav
Peak level 97.7 %
Extraction speed 1.6 X
Track quality 100.0 %
Test CRC 7810CAEA
Copy CRC 7810CAEA
Track not present in AccurateRip database
Copy OK
Track 5
Filename D:\Musica\Darius Jones Trio - Big Gurl (Smell My Dream) (2011) FLAC\05 - My Special -D.wav
Peak level 97.7 %
Extraction speed 1.7 X
Track quality 100.0 %
Test CRC 047AA6B3
Copy CRC 047AA6B3
Track not present in AccurateRip database
Copy OK
Track 6
Filename D:\Musica\Darius Jones Trio - Big Gurl (Smell My Dream) (2011) FLAC\06 - Chasing the Ghost.wav
Peak level 100.0 %
Extraction speed 1.7 X
Track quality 99.9 %
Test CRC 94506F9D
Copy CRC 94506F9D
Track not present in AccurateRip database
Copy OK
Track 7
Filename D:\Musica\Darius Jones Trio - Big Gurl (Smell My Dream) (2011) FLAC\07 - Ol' Metal-Faced Bastard.wav
Peak level 97.7 %
Extraction speed 2.0 X
Track quality 100.0 %
Test CRC 5F0AE864
Copy CRC 5F0AE864
Track not present in AccurateRip database
Copy OK
None of the tracks are present in the AccurateRip database
No errors occurred
End of status report
==== Log checksum BFCFF7776A95A4776FA0DECEF39B44FA3535DD088A7C5BFD2F300B5B90BF843E ====
 
Содержание индексной карты (.CUE)
REM GENRE Jazz
REM DATE 2011
REM DISCID 5C0B0007
REM COMMENT "ExactAudioCopy v1.0b2"
PERFORMER "Darius Jones Trio"
TITLE "Big Gurl (Smell My Dream)"
FILE "01 - E-Gaze.wav" WAVE
TRACK 01 AUDIO
TITLE "E-Gaze"
PERFORMER "Darius Jones Trio"
INDEX 01 00:00:00
FILE "02 - Michele Willie.wav" WAVE
TRACK 02 AUDIO
TITLE "Michele Willie"
PERFORMER "Darius Jones Trio"
INDEX 01 00:00:00
FILE "03 - A Train.wav" WAVE
TRACK 03 AUDIO
TITLE "A Train"
PERFORMER "Darius Jones Trio"
INDEX 01 00:00:00
FILE "04 - I Wish I Had a Choice.wav" WAVE
TRACK 04 AUDIO
TITLE "I Wish I Had a Choice"
PERFORMER "Darius Jones Trio"
INDEX 01 00:00:00
FILE "05 - My Special -D.wav" WAVE
TRACK 05 AUDIO
TITLE "My Special -D?"
PERFORMER "Darius Jones Trio"
INDEX 01 00:00:00
FILE "06 - Chasing the Ghost.wav" WAVE
TRACK 06 AUDIO
TITLE "Chasing the Ghost"
PERFORMER "Darius Jones Trio"
INDEX 01 00:00:00
FILE "07 - Ol' Metal-Faced Bastard.wav" WAVE
TRACK 07 AUDIO
TITLE "Ol' Metal-Faced Bastard"
PERFORMER "Darius Jones Trio"
INDEX 01 00:00:00
Доп. информация: Recorded on February 21, 2011
A Train based on "Take the A Train" by Billy Strayhorn
This album is dedicated to George Clinton and the Parliament-Funkadelic for giving a young black kid the option to be funky and strange(r). Stop!
 
Состав
Alto Saxophone, Composed By – Darius Jones
Bass – Adam Lane
Drums – Jason Nazary
Any questions -> support@pro-jazz.com. По всем вопросам пишите -> support@pro-jazz.com
02:17
168
Нет комментариев. Ваш будет первым!