Поиск

(Free Jazz, Contemporary Jazz, Tzadik) Perry Robinson & Burton Greene - Two Voices In The Desert - 2009, FLAC (tracks+.cue), lossless

(Free Jazz, Contemporary Jazz, Tzadik) Perry Robinson & Burton Greene - Two Voices In The Desert - 2009, FLAC (tracks+.cue), lossless
Треклист:
Perry Robinson & Burton Greene / Two Voices In The Desert
Жанр: Free Jazz, Contemporary Jazz, Tzadik
Страна-производитель диска: US
Год издания: 2009
Издатель (лейбл): Tzadik
Номер по каталогу: TZ 8142
Аудиокодек: FLAC (*.flac)
Тип рипа: tracks+.cue
Битрейт аудио: lossless
Продолжительность: 45:58
Источник (релизер): whatcd/wwombat
Наличие сканов в содержимом раздачи: нет
Треклист:
01. Syl's Freylekhs (4:00)
02. A Lamentation (5:25)
03. Burty's Freylekhs (6:22)
04. Desert Suite (15:19)
05. Song For My Friend Burton (5:49)
06. Ella Turtella (3:48)
07. Der Kats Zogt A Miowke (5:16)
 
Лог создания рипа
Exact Audio Copy V1.0 beta 3 from 29. August 2011
EAC extraction logfile from 3. September 2012, 9:34
Perry Robinson & Burton Greene / Two Voices in the Desert
Used drive : PIONEER DVD-RW DVR-216D Adapter: 4 ID: 0
Read mode : Secure
Utilize accurate stream : Yes
Defeat audio cache : Yes
Make use of C2 pointers : No
Read offset correction : 96
Overread into Lead-In and Lead-Out : No
Fill up missing offset samples with silence : Yes
Delete leading and trailing silent blocks : No
Null samples used in CRC calculations : Yes
Used interface : Native Win32 interface for Win NT & 2000
Gap handling : Appended to previous track
Used output format : User Defined Encoder
Selected bitrate : 896 kBit/s
Quality : High
Add ID3 tag : No
Command line compressor : G:\Program Files (x86)\FLAC\flac.exe
Additional command line options : -8 -V -T "ARTIST=%artist%" -T "TITLE=%title%" -T "ALBUM=%albumtitle%" -T "DATE=%year%" -T "TRACKNUMBER=%tracknr%" -T "GENRE=%genre%" -T "PERFORMER=%albuminterpret%" -T "COMPOSER=%composer%" %haslyrics%--tag-from-file=LYRICS="%lyricsfile%"%haslyrics% -T "ALBUMARTIST=%albumartist%" -T "DISCNUMBER=%cdnumber%" -T "TOTALDISCS=%totalcds%" -T "TOTALTRACKS=%numtracks%" -T "COMMENT=%comment%" %source% -o %dest%
TOC of the extracted CD
Track | Start | Length | Start sector | End sector
---------------------------------------------------------
1 | 0:00.00 | 4:00.28 | 0 | 18027
2 | 4:00.28 | 5:25.20 | 18028 | 42422
3 | 9:25.48 | 6:21.70 | 42423 | 71067
4 | 15:47.43 | 15:18.37 | 71068 | 139954
5 | 31:06.05 | 5:48.41 | 139955 | 166095
6 | 36:54.46 | 3:47.42 | 166096 | 183162
7 | 40:42.13 | 5:16.01 | 183163 | 206863
Track 1
Filename C:\Musique\Torrent\Perry Robinson & Burton Greene - Two Voices in the Desert (2008) [FLAC]\01-Perry Robinson & Burton Greene-Syl's Freylekhs.wav
Pre-gap length 0:00:02.00
Peak level 97.7 %
Extraction speed 3.9 X
Track quality 99.9 %
Test CRC 57A880EE
Copy CRC 57A880EE
Accurately ripped (confidence 2) [D607A065] (AR v1)
Copy OK
Track 2
Filename C:\Musique\Torrent\Perry Robinson & Burton Greene - Two Voices in the Desert (2008) [FLAC]\02-Perry Robinson & Burton Greene-A Lamentation.wav
Peak level 94.4 %
Extraction speed 5.1 X
Track quality 100.0 %
Test CRC 665E7301
Copy CRC 665E7301
Accurately ripped (confidence 3) [5E146CDF] (AR v1)
Copy OK
Track 3
Filename C:\Musique\Torrent\Perry Robinson & Burton Greene - Two Voices in the Desert (2008) [FLAC]\03-Perry Robinson & Burton Greene-Burty's Freylekhs.wav
Peak level 97.2 %
Extraction speed 5.8 X
Track quality 100.0 %
Test CRC FF1151B2
Copy CRC FF1151B2
Accurately ripped (confidence 3) [AE132E3E] (AR v1)
Copy OK
Track 4
Filename C:\Musique\Torrent\Perry Robinson & Burton Greene - Two Voices in the Desert (2008) [FLAC]\04-Perry Robinson & Burton Greene-Desert Suite.wav
Peak level 94.4 %
Extraction speed 7.1 X
Track quality 100.0 %
Test CRC 515FC5ED
Copy CRC 515FC5ED
Accurately ripped (confidence 3) [1F2F0368] (AR v1)
Copy OK
Track 5
Filename C:\Musique\Torrent\Perry Robinson & Burton Greene - Two Voices in the Desert (2008) [FLAC]\05-Perry Robinson & Burton Greene-Song for My Friend Burton.wav
Peak level 94.4 %
Extraction speed 7.4 X
Track quality 100.0 %
Test CRC 70C1525C
Copy CRC 70C1525C
Accurately ripped (confidence 3) [DD70F275] (AR v1)
Copy OK
Track 6
Filename C:\Musique\Torrent\Perry Robinson & Burton Greene - Two Voices in the Desert (2008) [FLAC]\06-Perry Robinson & Burton Greene-Ella Turtella.wav
Peak level 94.4 %
Extraction speed 7.3 X
Track quality 100.0 %
Test CRC 691AAAD5
Copy CRC 691AAAD5
Accurately ripped (confidence 3) [B794A82D] (AR v1)
Copy OK
Track 7
Filename C:\Musique\Torrent\Perry Robinson & Burton Greene - Two Voices in the Desert (2008) [FLAC]\07-Perry Robinson & Burton Greene-Der Kats Zogt A Miowke.wav
Peak level 94.0 %
Extraction speed 7.9 X
Track quality 100.0 %
Test CRC CA6D15F0
Copy CRC CA6D15F0
Accurately ripped (confidence 3) [9DC6F119] (AR v1)
Copy OK
All tracks accurately ripped
No errors occurred
End of status report
---- CUETools DB Plugin V2.1.3
[CTDB TOCID: 8cOy5TY2VGWEx2Bm9NeXcWSzpDg-] disk not present in database, Submit result: 8cOy5TY2VGWEx2Bm9NeXcWSzpDg- has been uploaded
==== Log checksum A05777D8A77C0EF3A8E6745E76E0A4454AECE6E441B73B8BB1CDD66568334B46 ====
 
Содержание индексной карты (.CUE)
REM GENRE Jazz
REM DATE 2008
REM DISCID 620AC607
REM COMMENT "ExactAudioCopy v1.0b3"
PERFORMER "Perry Robinson & Burton Greene"
TITLE "Two Voices in the Desert"
FILE "01-Perry Robinson & Burton Greene-Syl's Freylekhs.wav" WAVE
TRACK 01 AUDIO
TITLE "Syl's Freylekhs"
PERFORMER "Perry Robinson & Burton Greene"
INDEX 01 00:00:00
FILE "02-Perry Robinson & Burton Greene-A Lamentation.wav" WAVE
TRACK 02 AUDIO
TITLE "A Lamentation"
PERFORMER "Perry Robinson & Burton Greene"
INDEX 01 00:00:00
FILE "03-Perry Robinson & Burton Greene-Burty's Freylekhs.wav" WAVE
TRACK 03 AUDIO
TITLE "Burty's Freylekhs"
PERFORMER "Perry Robinson & Burton Greene"
INDEX 01 00:00:00
FILE "04-Perry Robinson & Burton Greene-Desert Suite.wav" WAVE
TRACK 04 AUDIO
TITLE "Desert Suite"
PERFORMER "Perry Robinson & Burton Greene"
INDEX 01 00:00:00
FILE "05-Perry Robinson & Burton Greene-Song for My Friend Burton.wav" WAVE
TRACK 05 AUDIO
TITLE "Song for My Friend Burton"
PERFORMER "Perry Robinson & Burton Greene"
INDEX 01 00:00:00
FILE "06-Perry Robinson & Burton Greene-Ella Turtella.wav" WAVE
TRACK 06 AUDIO
TITLE "Ella Turtella"
PERFORMER "Perry Robinson & Burton Greene"
INDEX 01 00:00:00
FILE "07-Perry Robinson & Burton Greene-Der Kats Zogt A Miowke.wav" WAVE
TRACK 07 AUDIO
TITLE "Der Kats Zogt A Miowke"
PERFORMER "Perry Robinson & Burton Greene"
INDEX 01 00:00:00
 
Состав
Clarinet, Ocarina, Flute [Wooden Flute], Clarinet [Sopranino] – Perry Robinson
Piano – Burton Greene
04:59
266
Нет комментариев. Ваш будет первым!