Поиск

(ethno-jazz, world fusion) Charlie Mariano - Bangalore 1998, FLAC (tracks+.cue), lossless

(ethno-jazz, world fusion) Charlie Mariano - Bangalore 1998, FLAC (tracks+.cue), lossless
Треклист:


Charlie Mariano - Bangalore 1998

Жанр: ethno-jazz, world fusion
Год выпуска: 1998
Издатель (лейбл):Intuition Music INT 3246 2
Формат: FLAC (tracks+.cue)
Битрейт аудио: lossless
Продолжительность 1:00:37
Источник: what.cd
Charlie Mariano alto saxophone
Dave King bass
Louis Banks keyboards
B.N.Chandramouli kanjira, konakkol
Dr. K.Raghavendra veena
G.Omkar morsing, konakkol
Jacob William bass
R.A.Rajagopal ghtam, konakkol
R.A.Ramamani vocals
S.Sudashan dholak
T.A.S.Mani mridarigum
T.N.Shashikumar tavil
V.K.Raman flute
Amit Heri guitar
Recorded at Arvind Studios, Bangalore, January 10 & 11, 1998

tracks

1. Sweet Seventeen
2. Pulse
3. Aathma
4. Bangalore
5. Charlie's Birthday Song
6. Where Ah Yah Goin'?
7. Encounter
8. Konversation


 
.log
Exact Audio Copy V1.0 beta 2 from 29. April 2011
EAC extraction logfile from 29. July 2012, 14:20
Charlie Mariano / Bangalore
Used drive : Optiarc DVD RW AD-7243S Adapter: 1 ID: 0
Read mode : Secure
Utilize accurate stream : Yes
Defeat audio cache : Yes
Make use of C2 pointers : No
Read offset correction : 48
Overread into Lead-In and Lead-Out : No
Fill up missing offset samples with silence : Yes
Delete leading and trailing silent blocks : No
Null samples used in CRC calculations : Yes
Used interface : Native Win32 interface for Win NT & 2000
Gap handling : Appended to previous track
Used output format : Internal WAV Routines
Sample format : 44.100 Hz; 16 Bit; Stereo
TOC of the extracted CD
Track | Start | Length | Start sector | End sector
---------------------------------------------------------
1 | 0:00.00 | 8:10.12 | 0 | 36761
2 | 8:10.12 | 8:58.53 | 36762 | 77164
3 | 17:08.65 | 5:09.30 | 77165 | 100369
4 | 22:18.20 | 10:34.72 | 100370 | 147991
5 | 32:53.17 | 5:36.73 | 147992 | 173264
6 | 38:30.15 | 6:59.62 | 173265 | 204751
7 | 45:30.02 | 9:48.40 | 204752 | 248891
8 | 55:18.42 | 5:18.25 | 248892 | 272766
Track 1
Filename C:\Users\Posch\Desktop\temp\01 - Sweet Seventeen.wav
Pre-gap length 0:00:02.00
Peak level 98.8 %
Extraction speed 2.6 X
Track quality 100.0 %
Test CRC 0C31E130
Copy CRC 0C31E130
Accurately ripped (confidence 11) [46C04E91] (AR v1)
Copy OK
Track 2
Filename C:\Users\Posch\Desktop\temp\02 - Pulse.wav
Pre-gap length 0:00:02.72
Peak level 95.5 %
Extraction speed 3.2 X
Track quality 100.0 %
Test CRC 65874BE7
Copy CRC 65874BE7
Accurately ripped (confidence 11) [CF000E8B] (AR v1)
Copy OK
Track 3
Filename C:\Users\Posch\Desktop\temp\03 - Aathma.wav
Pre-gap length 0:00:02.63
Peak level 97.7 %
Extraction speed 3.1 X
Track quality 99.9 %
Test CRC 13615032
Copy CRC 13615032
Accurately ripped (confidence 11) [0A85B171] (AR v1)
Copy OK
Track 4
Filename C:\Users\Posch\Desktop\temp\04 - Bangalore.wav
Pre-gap length 0:00:03.00
Peak level 98.8 %
Extraction speed 4.0 X
Track quality 100.0 %
Test CRC 77CE762D
Copy CRC 77CE762D
Accurately ripped (confidence 11) [9DDC3440] (AR v1)
Copy OK
Track 5
Filename C:\Users\Posch\Desktop\temp\05 - Charlie's Birthday Song.wav
Pre-gap length 0:00:03.57
Peak level 97.7 %
Extraction speed 3.8 X
Track quality 99.9 %
Test CRC DA07F2DE
Copy CRC DA07F2DE
Accurately ripped (confidence 11) [4323EC05] (AR v1)
Copy OK
Track 6
Filename C:\Users\Posch\Desktop\temp\06 - Where Ah Yah Goin'.wav
Peak level 97.7 %
Extraction speed 4.4 X
Track quality 100.0 %
Test CRC 556637B5
Copy CRC 556637B5
Accurately ripped (confidence 11) [DF7A1927] (AR v1)
Copy OK
Track 7
Filename C:\Users\Posch\Desktop\temp\07 - Encounter.wav
Pre-gap length 0:00:03.15
Peak level 97.7 %
Extraction speed 3.2 X
Track quality 100.0 %
Test CRC 31979050
Copy CRC 31979050
Accurately ripped (confidence 11) [FA6CEE4F] (AR v1)
Copy OK
Track 8
Filename C:\Users\Posch\Desktop\temp\08 - Konversation.wav
Pre-gap length 0:00:02.22
Peak level 96.6 %
Extraction speed 4.9 X
Track quality 100.0 %
Test CRC 6AA4C5A0
Copy CRC 6AA4C5A0
Accurately ripped (confidence 11) [A6A24CA5] (AR v1)
Copy OK
All tracks accurately ripped
No errors occurred
End of status report
==== Log checksum CE8111AFC1C9F96198BAFE7D4021192D2DFC08F8C08793F5DC9F2AC69E9C9ECD ====
 
.cue
REM ACCURATERIPID 0013418d-007fa529-510e3408
REM COMMENT "CUETools generated dummy CUE sheet"
PERFORMER "Charlie Mariano"
TITLE "Bangalore"
FILE "01 - Sweet Seventeen.flac" WAVE
TRACK 01 AUDIO
PERFORMER "Charlie Mariano"
TITLE "Sweet Seventeen"
INDEX 01 00:00:00
TRACK 02 AUDIO
PERFORMER "Charlie Mariano"
TITLE "Pulse"
INDEX 00 08:07:33
FILE "02 - Pulse.flac" WAVE
INDEX 01 00:00:00
TRACK 03 AUDIO
PERFORMER "Charlie Mariano"
TITLE "Aathma"
INDEX 00 08:56:06
FILE "03 - Aathma.flac" WAVE
INDEX 01 00:00:00
TRACK 04 AUDIO
PERFORMER "Charlie Mariano"
TITLE "Bangalore"
INDEX 00 05:06:30
FILE "04 - Bangalore.flac" WAVE
INDEX 01 00:00:00
TRACK 05 AUDIO
PERFORMER "Charlie Mariano"
TITLE "Charlie's Birthday Song"
INDEX 00 10:31:29
FILE "05 - Charlie's Birthday Song.flac" WAVE
INDEX 01 00:00:00
FILE "06 - Where Ah Yah Goin'.flac" WAVE
TRACK 06 AUDIO
PERFORMER "Charlie Mariano"
TITLE "Where Ah Yah Goin'"
INDEX 01 00:00:00
TRACK 07 AUDIO
PERFORMER "Charlie Mariano"
TITLE "Encounter"
INDEX 00 06:56:51
FILE "07 - Encounter.flac" WAVE
INDEX 01 00:00:00
TRACK 08 AUDIO
PERFORMER "Charlie Mariano"
TITLE "Konversation"
INDEX 00 09:46:23
FILE "08 - Konversation.flac" WAVE
INDEX 01 00:00:00
 
.accurip
[CUETools log; Date: 31/08/12 20:54:44; Version: 2.1.2a]
[CTDB TOCID: Zbu3UBTAgUHyBaGiFxWYC3gzpXE-] found.
[ CTDBID ] Status
[0716ea0c] (16/16) Accurately ripped
[AccurateRip ID: 0013418d-007fa529-510e3408] found.
Track [ CRC ] Status
01 [46c04e91] (11/13) Accurately ripped
02 [cf000e8b] (11/13) Accurately ripped
03 [0a85b171] (11/13) Accurately ripped
04 [9ddc3440] (11/13) Accurately ripped
05 [4323ec05] (11/13) Accurately ripped
06 [df7a1927] (11/13) Accurately ripped
07 [fa6cee4f] (11/13) Accurately ripped
08 [a6a24ca5] (11/13) Accurately ripped
Offsetted by -29:
01 [41426b10] (02/13) Accurately ripped
02 [512a4f72] (02/13) Accurately ripped
03 [58c7667b] (02/13) Accurately ripped
04 [1ee833fa] (02/13) Accurately ripped
05 [3e93292d] (02/13) Accurately ripped
06 [18b0956e] (02/13) Accurately ripped
07 [d54d04b0] (02/13) Accurately ripped
08 [796de1b2] (02/13) Accurately ripped
Track Peak [ CRC32 ] [W/O NULL] [ LOG ]
-- 98.8 [D4B9E7BD] [51544DBA]
01 98.8 [0C31E130] [F6D2BF21] CRC32
02 95.5 [65874BE7] [B4C3764A] CRC32
03 97.7 [13615032] [CAA4D7CD] CRC32
04 98.8 [77CE762D] [651E426F] CRC32
05 97.7 [DA07F2DE] [796E1058] CRC32
06 97.7 [556637B5] [89637377] CRC32
07 97.7 [31979050] [B561E28E] CRC32
08 96.6 [6AA4C5A0] [7B5570EE] CRC32

другие релизы
04:58
273
Нет комментариев. Ваш будет первым!