Вы используете незарегистрированную версию компонента "Вкладки"!

Поиск

(Free Jazz, Contemporary Jazz) Ornette Coleman - Croydon Concert - 2008, FLAC (tracks+.cue), lossless

(Free Jazz, Contemporary Jazz) Ornette Coleman - Croydon Concert - 2008, FLAC (tracks+.cue), lossless
Треклист:
Ornette Coleman / Croydon Concert
Жанр: Free Jazz, Contemporary Jazz
Год издания диска: 2008
Издатель (лейбл): FreeFactory
Номер по каталогу: 061
Аудиокодек: FLAC (*.flac)
Тип рипа: tracks+.cue
Битрейт аудио: lossless
Продолжительность: 78:16
Источник (релизер): whatcd/szakall
Наличие сканов в содержимом раздачи: да
Треклист:
01. Forms And Sounds For Wind Quintet (in Ten Movements) 25:03
02. Sadness 3:40
03. Clergyman’s Dream 12:22
04. Falling Stars 9:02
05. Silence 9:17
06. Happy Fool 7:13
07. Ballad 5:20
08. Dough Nuts 6:15
 
Лог создания рипа
Exact Audio Copy V1.0 beta 2 from 29. April 2011
EAC extraction logfile from 20. October 2011, 23:20
Ornette Coleman / Croydon Concert
Used drive : TSSTcorpCDDVDW SH-S222A Adapter: 1 ID: 0
Read mode : Secure
Utilize accurate stream : Yes
Defeat audio cache : Yes
Make use of C2 pointers : No
Read offset correction : 6
Overread into Lead-In and Lead-Out : No
Fill up missing offset samples with silence : Yes
Delete leading and trailing silent blocks : No
Null samples used in CRC calculations : Yes
Used interface : Native Win32 interface for Win NT & 2000
Gap handling : Appended to previous track
Used output format : User Defined Encoder
Selected bitrate : 896 kBit/s
Quality : High
Add ID3 tag : No
Command line compressor : C:\Tool\CD\EAC10\FLAC\FLAC.EXE
Additional command line options : -6 -V -T "ARTIST=%artist%" -T "TITLE=%title%" -T "ALBUM=%albumtitle%" -T "DATE=%year%" -T "TRACKNUMBER=%tracknr%" -T "GENRE=%genre%" -T "COMMENT=%comment%" -T "BAND=%albuminterpret%" -T "COMPOSER=%composer%" %haslyrics%--ta
TOC of the extracted CD
Track | Start | Length | Start sector | End sector
---------------------------------------------------------
1 | 0:00.00 | 25:03.10 | 0 | 112734
2 | 25:03.10 | 3:40.26 | 112735 | 129260
3 | 28:43.36 | 12:22.65 | 129261 | 184975
4 | 41:06.26 | 9:02.28 | 184976 | 225653
5 | 50:08.54 | 9:17.26 | 225654 | 267454
6 | 59:26.05 | 7:13.51 | 267455 | 299980
7 | 66:39.56 | 5:20.74 | 299981 | 324054
8 | 72:00.55 | 6:16.00 | 324055 | 352254
Track 1
Filename C:\! UPLOAD\Ornette Coleman - Croydon Concert (1965-2008) [FLAC] {FreeFactory}\01 - Forms and sound for wind quintet.wav
Pre-gap length 0:00:02.00
Peak level 96.1 %
Extraction speed 3.5 X
Track quality 100.0 %
Test CRC 40C06FD2
Copy CRC 40C06FD2
Track not present in AccurateRip database
Copy OK
Track 2
Filename C:\! UPLOAD\Ornette Coleman - Croydon Concert (1965-2008) [FLAC] {FreeFactory}\02 - Sadness.wav
Peak level 94.8 %
Extraction speed 3.1 X
Track quality 100.0 %
Test CRC 896E2763
Copy CRC 896E2763
Track not present in AccurateRip database
Copy OK
Track 3
Filename C:\! UPLOAD\Ornette Coleman - Croydon Concert (1965-2008) [FLAC] {FreeFactory}\03 - Clergyman's dream.wav
Peak level 91.0 %
Extraction speed 3.5 X
Track quality 100.0 %
Test CRC EA29EABC
Copy CRC EA29EABC
Track not present in AccurateRip database
Copy OK
Track 4
Filename C:\! UPLOAD\Ornette Coleman - Croydon Concert (1965-2008) [FLAC] {FreeFactory}\04 - Falling stars.wav
Peak level 93.5 %
Extraction speed 3.5 X
Track quality 100.0 %
Test CRC 3C6470D2
Copy CRC 3C6470D2
Track not present in AccurateRip database
Copy OK
Track 5
Filename C:\! UPLOAD\Ornette Coleman - Croydon Concert (1965-2008) [FLAC] {FreeFactory}\05 - Silence.wav
Peak level 91.0 %
Extraction speed 3.4 X
Track quality 100.0 %
Test CRC 2935E77D
Copy CRC 2935E77D
Track not present in AccurateRip database
Copy OK
Track 6
Filename C:\! UPLOAD\Ornette Coleman - Croydon Concert (1965-2008) [FLAC] {FreeFactory}\06 - Happy fool.wav
Peak level 96.2 %
Extraction speed 3.4 X
Track quality 100.0 %
Test CRC 485574A9
Copy CRC 485574A9
Track not present in AccurateRip database
Copy OK
Track 7
Filename C:\! UPLOAD\Ornette Coleman - Croydon Concert (1965-2008) [FLAC] {FreeFactory}\07 - Ballade.wav
Peak level 95.5 %
Extraction speed 3.2 X
Track quality 100.0 %
Test CRC F2FFECF5
Copy CRC F2FFECF5
Track not present in AccurateRip database
Copy OK
Track 8
Filename C:\! UPLOAD\Ornette Coleman - Croydon Concert (1965-2008) [FLAC] {FreeFactory}\08 - Dough nuts.wav
Peak level 96.7 %
Extraction speed 3.3 X
Track quality 100.0 %
Test CRC 5F3EB5A3
Copy CRC 5F3EB5A3
Track not present in AccurateRip database
Copy OK
None of the tracks are present in the AccurateRip database
No errors occurred
End of status report
---- CUETools DB Plugin V2.1.2
[CTDB TOCID: xQNpUYdEfHWcyxCR5KQCkH5zUw0-] found, Submit result: already submitted
[df959dab] (1/1) Accurately ripped
==== Log checksum D2338B6D30C0D8719A6AC64CB69FB287E646B7A8B8F70FB6292955A69850841C ====
 
Содержание индексной карты (.CUE)
REM GENRE "Free Jazz"
REM DATE 1965
REM DISCID 5A125808
REM COMMENT "ExactAudioCopy v1.0b2"
PERFORMER "Ornette Coleman"
TITLE "Croydon Concert"
FILE "01 - Forms and sound for wind quintet.flac" WAVE
TRACK 01 AUDIO
TITLE "Forms and sound for wind quintet"
PERFORMER "Ornette Coleman"
INDEX 01 00:00:00
FILE "02 - Sadness.flac" WAVE
TRACK 02 AUDIO
TITLE "Sadness"
PERFORMER "Ornette Coleman"
INDEX 01 00:00:00
FILE "03 - Clergyman's dream.flac" WAVE
TRACK 03 AUDIO
TITLE "Clergyman's dream"
PERFORMER "Ornette Coleman"
INDEX 01 00:00:00
FILE "04 - Falling stars.flac" WAVE
TRACK 04 AUDIO
TITLE "Falling stars"
PERFORMER "Ornette Coleman"
INDEX 01 00:00:00
FILE "05 - Silence.flac" WAVE
TRACK 05 AUDIO
TITLE "Silence"
PERFORMER "Ornette Coleman"
INDEX 01 00:00:00
FILE "06 - Happy fool.flac" WAVE
TRACK 06 AUDIO
TITLE "Happy fool"
PERFORMER "Ornette Coleman"
INDEX 01 00:00:00
FILE "07 - Ballade.flac" WAVE
TRACK 07 AUDIO
TITLE "Ballade"
PERFORMER "Ornette Coleman"
INDEX 01 00:00:00
FILE "08 - Dough nuts.flac" WAVE
TRACK 08 AUDIO
TITLE "Dough nuts"
PERFORMER "Ornette Coleman"
INDEX 01 00:00:00
 
Об альбоме (сборнике)
Recorded live at Fairfield Hall, Croydon, England, August 29, 1965.
Originally issued on a 2-LP Set entitled The London Concert this CD includes the complete double album in its enterity, including a long chamber work written by Ornette Coleman, plus seven trio perfomances.
On CD for the first time ever, the complete and long unavailable Ornette Coleman concert at Fairfield Hall, Croydon, on August 29, 1965 - which includes a long chamber work written by Coleman as well as seven inimitable performances by Ornette and his classic trio with David Izenzon and Charles Moffett. It immediately follows the “Chappaqua Suite” sessions in Ornette's discography, and has the particularity of presenting both a set by Coleman's spectacular trio and a performance of “Forms and Sound for Wind Quintet” – a ten-movement chamber suite composed by the saxophonist, but performed by the Virtuoso Ensemble, of which this seems to be the only existing recording.
 
Состав
Ornette Coleman - as, tp & vn on 4
David Izenzon - b
Charles Moffett - dr
Any questions -> support@pro-jazz.com. По всем вопросам пишите -> support@pro-jazz.com
17:49
126
Нет комментариев. Ваш будет первым!