Вы используете незарегистрированную версию компонента "Вкладки"!

Поиск

(Free Improvisation) John Wolf Brennan, Gene Coleman, Christian Wolfarth - Momentum - 1999, FLAC (image+.cue), lossless

(Free Improvisation) John Wolf Brennan, Gene Coleman, Christian Wolfarth - Momentum - 1999, FLAC (image+.cue), lossless
Треклист:
John Wolf Brennan, Gene Coleman, Christian Wolfarth / Momentum
Жанр: Free Improvisation
Страна-производитель диска: UK
Год издания диска: 1999
Издатель (лейбл): Leo Records
Номер по каталогу: LR 274
Аудиокодек: FLAC (*.flac)
Тип рипа: image+.cue
Битрейт аудио: lossless
Продолжительность: 63:43
Источник (релизер): cd
Наличие сканов в содержимом раздачи: нет
Треклист:
1 Robots Don't Cough 2:22
2 Poco Loco 3:47
3 Siluanos 4:49
4 To Hoo Wa Bo Hoo 8:08
5 Nadir 3:03
6 Melometris 4:24
7 (With A) Knot-knowing Smile 11:51
8 Grrrvity 8:40
9 Harmolodic Outlaws 6:52
10 Zenith 9:46
 
Лог создания рипа
Exact Audio Copy V1.0 beta 2 from 29. April 2011
EAC extraction logfile from 28. October 2011, 15:38
Brennan Coleman Wolfarth / Momentum
Used drive : Optiarc DVD RW AD-7170A Adapter: 0 ID: 0
Read mode : Secure
Utilize accurate stream : Yes
Defeat audio cache : Yes
Make use of C2 pointers : No
Read offset correction : 48
Overread into Lead-In and Lead-Out : No
Fill up missing offset samples with silence : Yes
Delete leading and trailing silent blocks : No
Null samples used in CRC calculations : Yes
Used interface : Native Win32 interface for Win NT & 2000
Used output format : User Defined Encoder
Selected bitrate : 320 kBit/s
Quality : High
Add ID3 tag : No
Command line compressor : C:\Program Files\Exact Audio Copy\Flac\flac.exe
Additional command line options : -V -8 -T "Date=%year%" -T "Genre=%genre%" %source%
TOC of the extracted CD
Track | Start | Length | Start sector | End sector
---------------------------------------------------------
1 | 0:00.00 | 2:21.15 | 0 | 10589
2 | 2:21.15 | 3:46.25 | 10590 | 27564
3 | 6:07.40 | 4:49.07 | 27565 | 49246
4 | 10:56.47 | 8:06.70 | 49247 | 85766
5 | 19:03.42 | 3:04.55 | 85767 | 99621
6 | 22:08.22 | 4:23.08 | 99622 | 119354
7 | 26:31.30 | 11:51.04 | 119355 | 172683
8 | 38:22.34 | 8:40.48 | 172684 | 211731
9 | 47:03.07 | 6:54.27 | 211732 | 242808
10 | 53:57.34 | 9:46.03 | 242809 | 286761
Range status and errors
Selected range
Filename C:\EAC\Downloads\Brennan Coleman Wolfarth - Momentum.wav
Peak level 98.0 %
Extraction speed 5.4 X
Range quality 99.9 %
Test CRC 81673541
Copy CRC 81673541
Copy OK
No errors occurred
AccurateRip summary
Track 1 accurately ripped (confidence 1) [5B860290] (AR v1)
Track 2 accurately ripped (confidence 1) [BBB1C405] (AR v1)
Track 3 accurately ripped (confidence 1) [17343355] (AR v1)
Track 4 accurately ripped (confidence 1) [FA9D2A1C] (AR v1)
Track 5 accurately ripped (confidence 1) [FEAB6F01] (AR v1)
Track 6 accurately ripped (confidence 1) [43B3E851] (AR v1)
Track 7 accurately ripped (confidence 1) [71A02AA9] (AR v1)
Track 8 accurately ripped (confidence 1) [25B670E1] (AR v1)
Track 9 accurately ripped (confidence 1) [58268B15] (AR v1)
Track 10 accurately ripped (confidence 1) [F3075515] (AR v1)
All tracks accurately ripped
End of status report
==== Log checksum 3114AB2DD5E07DA8CCC52DFCF797663F6A3E28D28FDD5AC539E2B5F6AE369253 ====
 
Содержание индексной карты (.CUE)
REM GENRE Jazz
REM DATE 1999
REM DISCID 7E0EEF0A
REM COMMENT "ExactAudioCopy v1.0b2"
CATALOG 0000000000000
PERFORMER "Brennan Coleman Wolfarth"
TITLE "Momentum"
FILE "Brennan Coleman Wolfarth - Momentum.flac" WAVE
TRACK 01 AUDIO
TITLE "Robots don.t cough"
PERFORMER "Brennan Coleman Wolfarth"
ISRC 000000000000
INDEX 01 00:00:00
TRACK 02 AUDIO
TITLE "Poco Loco"
PERFORMER "Brennan Coleman Wolfarth"
ISRC 000000000000
INDEX 00 02:20:02
INDEX 01 02:21:15
TRACK 03 AUDIO
TITLE "Siluanos"
PERFORMER "Brennan Coleman Wolfarth"
ISRC 000000000000
INDEX 01 06:07:40
TRACK 04 AUDIO
TITLE "To hoo wa bo hoo"
PERFORMER "Brennan Coleman Wolfarth"
ISRC 000000000000
INDEX 01 10:56:47
TRACK 05 AUDIO
TITLE "Nadir"
PERFORMER "Brennan Coleman Wolfarth"
ISRC 000000000000
INDEX 01 19:03:42
TRACK 06 AUDIO
TITLE "Melometris"
PERFORMER "Brennan Coleman Wolfarth"
ISRC 000000000000
INDEX 00 22:03:54
INDEX 01 22:08:22
TRACK 07 AUDIO
TITLE "(With a) knot-knowing Smile"
PERFORMER "Brennan Coleman Wolfarth"
ISRC 000000000000
INDEX 01 26:31:30
TRACK 08 AUDIO
TITLE "Grrrrvity"
PERFORMER "Brennan Coleman Wolfarth"
ISRC 000000000000
INDEX 01 38:22:34
TRACK 09 AUDIO
TITLE "Harmolodic Outlaws"
PERFORMER "Brennan Coleman Wolfarth"
ISRC 000000000000
INDEX 01 47:03:07
TRACK 10 AUDIO
TITLE "Zenith"
PERFORMER "Brennan Coleman Wolfarth"
ISRC 000000000000
INDEX 01 53:57:34
Доп. информация: Recorded on 20 October 1998 at WIM, Zurich
 
Состав
Bass Clarinet, Melodica – Gene Coleman
Percussion – Christian Wolfarth
Piano, Piano [Prepared] – John Wolf Brennan
Any questions -> support@pro-jazz.com. По всем вопросам пишите -> support@pro-jazz.com
17:50
138
Нет комментариев. Ваш будет первым!